<?xml version="1.0" standalone="no"?>
<!DOCTYPE svg PUBLIC "-//W3C//DTD SVG 1.1//EN" "http://www.w3.org/Graphics/SVG/1.1/DTD/svg11.dtd">
<svg xmlns="http://www.w3.org/2000/svg">
<metadata>Copyright (C) 2022 by original authors @ fontello.com</metadata>
<defs>
<font id="klbtheme" horiz-adv-x="1000" >
<font-face font-family="klbtheme" font-weight="400" font-stretch="normal" units-per-em="1000" ascent="850" descent="-150" />
<missing-glyph horiz-adv-x="1000" />
<glyph glyph-name="shopping-bag-ft" unicode="&#xe800;" d="M850 554h-129c-4 146-100 263-221 263-121 0-217-117-221-263h-133c-17 0-29-12-29-29v-613c0-16 12-29 29-29h704c17 0 29 13 29 29v613c0 17-12 29-29 29z m-350 204c88 0 158-91 163-204h-325c4 113 75 204 162 204z m321-816h-646v554h646v-554z" horiz-adv-x="1000" />

<glyph glyph-name="left-arrow" unicode="&#xe801;" d="M12 322c0 0 0 0 0 0l204-203c15-15 40-15 55 0 15 16 15 40 0 56l-137 136h827c21 0 39 18 39 39 0 22-18 39-39 39h-827l137 136c15 16 15 40 0 56-15 15-40 15-55 0l-204-203c0 0 0 0 0 0-16-15-16-40 0-56z" horiz-adv-x="1000" />

<glyph glyph-name="right-arrow" unicode="&#xe802;" d="M989 378c0 0 0 0 0 0l-205 203c-15 15-40 15-55 0-15-16-15-40 0-56l137-136h-827c-21 0-39-17-39-39 0-22 18-39 39-39h827l-137-136c-15-16-15-40 0-56 15-15 40-15 55 0l205 203c0 0 0 0 0 0 15 16 15 40 0 56z" horiz-adv-x="1000" />

<glyph glyph-name="usert" unicode="&#xe803;" d="M500 363c-121 0-221 100-221 220s100 225 221 225c125 0 221-100 221-220s-96-225-221-225z m0 379c-87 0-158-71-158-159s71-158 158-158c88 0 158 71 158 158s-70 159-158 159z m304-850h-608c-46 0-92 25-113 58-20 33-20 71 0 104 50 96 163 209 417 209s367-113 417-209c16-33 16-71 0-104-21-33-67-58-113-58z m-304 308c-221 0-321-96-362-175-9-12-9-29 0-42 12-16 33-29 58-29h604c25 0 50 13 58 29 9 13 9 25 0 42-37 79-137 175-358 175z" horiz-adv-x="1000" />

<glyph glyph-name="heart" unicode="&#xe804;" d="M500-63c-8 0-12 5-17 9l-383 358c-104 125-83 296 38 396 104 88 258 83 362-12 104 95 254 100 367 12 58-46 96-117 104-187s-13-150-58-205l-388-354c-12-8-17-17-25-17z m-196 759c-46 0-87-13-125-46-96-79-112-208-33-304l354-333 363 337c37 42 50 96 45 150s-37 104-83 142c-100 83-229 46-300-34-8-12-37-12-50 0-42 59-104 88-171 88z" horiz-adv-x="1000" />

<glyph glyph-name="search" unicode="&#xe805;" d="M938-121c-9 0-17 4-25 8l-209 209c-71-58-162-96-266-96-230 0-409 179-409 408s179 413 409 413 408-179 408-408c0-105-38-196-96-267l208-209c13-12 13-33 0-45-4-9-12-13-20-13z m-500 875c-192 0-342-150-342-341 0-196 146-342 342-342 95 0 179 37 241 96 0 0 0 0 4 4 0 0 0 0 5 4 58 63 95 146 95 242 0 187-154 337-345 337z" horiz-adv-x="1000" />

<glyph glyph-name="source_icons_menu" unicode="&#xe806;" d="M929 658h-858c-13 0-25 9-25 25s12 25 25 25h854c13 0 25-12 25-25s-8-25-21-25z m0-333h-858c-13 0-25 13-25 25s12 25 25 25h854c13 0 25-12 25-25s-8-25-21-25z m0-333h-858c-13 0-25 12-25 25s12 25 25 25h854c13 0 25-13 25-25s-8-25-21-25z" horiz-adv-x="1000" />

<glyph glyph-name="bill" unicode="&#xe807;" d="M834 432c-1 1-83 69-84 69l-17-14c-7-6-17-5-22 1-6 7-5 17 2 22l27 24c6 5 14 5 20 0l68-57v264c0 43-35 78-78 78s-78-35-78-78v-813c0-9-7-16-16-16s-15 7-15 16v813c0 30 12 58 33 78h-486c-44 0-79-35-79-78v-780l69 57c5 5 14 5 20 0l83-70 84 70c6 5 14 5 20 0l84-70 84 70c5 5 14 5 20 0l23-19c7-6 8-16 2-22s-15-8-22-2l-13 11-84-70c-6-5-14-5-20 0l-84 70-84-70c-6-5-14-5-20 0l-83 70-84-70c-10-8-26-1-26 12v813c0 60 49 109 110 109h562c60 0 109-49 109-109 0-319 1-298 0-301-3-11-16-16-25-8z m-459 106c-9 0-16 7-16 15 0 9-7 16-15 16s-16-7-16-16c0-18 10-34 26-41v-10c0-8 7-15 15-15s16 7 16 15v5c21 5 37 24 37 46v6c0 21-13 39-33 45l-19 6c-6 2-11 8-11 15v6c0 9 7 16 16 16s16-7 16-16c0-8 7-15 15-15s16 7 16 15c0 21-13 38-31 44v7c0 9-7 16-16 16s-16-7-16-16v-7c-18-6-31-23-31-44v-6c0-21 13-39 33-45l19-6c6-2 11-8 11-15v-6c0-8-7-15-16-15z m-141 39h28c8 0 15 7 15 15s-7 16-15 16h-28c-8 0-15-7-15-16s7-15 15-15z m282 31h-28c-8 0-15-7-15-16s7-15 15-15h28c8 0 15 7 15 15s-7 16-15 16z m0-223h-282c-8 0-15-7-15-15s7-16 15-16h282c8 0 15 7 15 16s-7 15-15 15z m0-140h-32c-8 0-15-7-15-16s7-16 15-16h32c8 0 15 7 15 16s-7 16-15 16z m-282 0c-8 0-15-7-15-16s7-16 15-16h188c8 0 15 7 15 16s-7 16-15 16z" horiz-adv-x="1000" />

<glyph glyph-name="buy-button" unicode="&#xe808;" d="M301 103c6-6 6-16 0-22l-19-20c-3-3-7-4-11-4-14 0-21 17-11 26l19 20c6 6 16 6 22 0z m237 102h-429c-43 0-78 35-78 78v294c0 43 35 78 78 78h633c43 0 78-35 78-78v-202c0-9 7-16 16-16s16 7 16 16v202c0 60-49 109-110 109h-633c-60 0-109-49-109-109v-294c0-60 49-109 109-109h429c9 0 16 7 16 16s-7 15-16 15z m-259 552c3-3 7-4 11-4 14 0 21 17 11 27l-19 19c-6 6-16 6-22 0-7-6-7-16 0-22z m147 30c8 0 15 7 15 16v27c0 9-7 16-15 16s-16-7-16-16v-27c0-9 7-16 16-16z m147-30l19 20c6 6 6 16 0 22-6 6-16 6-22 0l-19-19c-6-7-6-16 0-23 6-6 16-6 22 0z m-147-684c-9 0-16-7-16-16v-27c0-9 7-16 16-16s15 7 15 16v27c0 9-7 16-15 16z m506-50l-105 88 44 44c8 8 4 22-7 26l-244 73c-12 3-23-8-20-20l73-244c4-11 18-15 26-7l56 56c6 6 6 16 0 22-6 6-16 6-22 0l-37-37-57 192 191-58-37-37c-6-6-6-17 1-23l105-88-55-55-30 36c-6 7-16 8-22 2-7-5-8-15-2-22l41-49c6-7 16-7 23-1l79 79c6 7 6 17-1 23z m-651 407c14-12 23-29 23-49 0-9-7-16-16-16s-15 7-15 16c0 19-15 34-34 34h-53v-67h53c9 0 16-7 16-16s-7-16-16-16h-68c-9 0-16 7-16 16 0 21 0 175 0 196 0 9 7 16 16 16h68c60 0 88-75 42-114z m-8 49c0 19-15 34-34 34h-53v-67h53c19 0 34 15 34 33z m94 65c-9 0-16-7-16-16v-137c0-41 34-75 75-75s74 34 74 75v137c0 9-7 16-15 16s-16-7-16-16v-137c0-24-19-43-43-43s-43 19-43 43v137c0 9-7 16-16 16z m469-225c-9 0-16-7-16-16v-20c0-8 7-15 16-15s16 7 16 15v20c0 9-7 16-16 16z m-214-3c9 0 16 7 16 16v94l56 94c5 8 2 17-5 22-7 4-17 2-21-6l-46-76-45 76c-5 8-14 10-22 6-7-5-10-14-5-22l56-94v-94c0-9 7-16 16-16z" horiz-adv-x="1000" />

<glyph glyph-name="screen-1" unicode="&#xe809;" d="M875 805h-812c-35 0-63-28-63-62v-563c0-34 28-62 63-62h335v-61c0-9 7-16 16-16s16 7 16 16v57h78v-57c0-9 7-16 15-16s16 7 16 16v61h336c35 0 63 28 63 62v563c0 34-28 62-63 62z m31-625c0-17-14-31-31-31h-812c-18 0-32 14-32 31v563c0 17 14 31 32 31h812c17 0 31-14 31-31z m-204-212c-2-8-11-12-19-10-131 41-298 41-428 0-9-2-17 2-20 10-2 9 2 17 10 20 137 43 310 43 447 0 8-3 13-11 10-20z m-233 517c-38-44-110-17-110 41 0 8 7 15 16 15s16-7 16-15c0-17 14-31 31-31s31 14 31 31c0 8 7 15 16 15s15-7 15-15c0-17 14-31 32-31s31 14 31 31c0 8 7 15 16 15s15-7 15-15c0-17 14-31 31-31 9 0 16-7 16-16s-7-16-16-16c-18 0-35 9-46 22-25-29-69-29-94 0z m203 119v-71c0-9-7-16-16-16s-15 7-15 16v71c0 17-14 31-32 31h-281c-17 0-31-14-31-31v-78c0-17 14-31 31-31 9 0 16-7 16-16s-7-16-16-16c-11 0-22 3-31 9v-149c0-18 14-32 31-32h281c18 0 32 14 32 32v117c0 9 7 16 15 16s16-7 16-16v-117c0-35-28-63-63-63h-281c-34 0-62 28-62 63v281c0 34 28 62 62 62h281c35 0 63-28 63-62z m-152-199c8 0 15-7 15-16s-7-16-15-16h-102c-9 0-16 7-16 16s7 16 16 16z" horiz-adv-x="1000" />

<glyph glyph-name="tshirt-2" unicode="&#xe80a;" d="M342 108c0-9-7-16-16-16h-78c-9 0-16 7-16 16s7 15 16 15h78c9 0 16-7 16-15z m-16-63h-78c-9 0-16-7-16-15s7-16 16-16h78c9 0 16 7 16 16s-7 15-16 15z m607 295c-130 130-122 123-127 124-4 2 24 1-507 1v168c0 9-7 16-16 16h-99v138l94 9c8 1 15 9 14 18s-9 14-17 14l-109-11c-8-1-14-8-14-16v-168c0-8 7-15 16-15h100v-153c-141 0-133 1-137-1-4-1 4 6-126-124-7-6-7-16 0-22 6-7 16-7 22 0l94 94v-423c0-35 28-63 62-63 0 0 571 0 571 0 34 0 62 28 62 63v363c0 9-7 16-15 16s-16-7-16-16v-363c0-18-14-32-31-32h-570c-18 0-32 14-32 32v445h642l117-116c6-7 16-7 22 0s6 16 0 22z m-464 360c61 0 111 45 120 104l165-17v-138h-100c-8 0-15-7-15-16v-99c0-9 7-16 15-16s16 7 16 16v84h100c8 0 15 7 15 15v168c0 8-6 15-14 16l-195 19c-9 1-17-6-17-15 0-50-41-90-90-90s-90 40-90 90c0 8-7 15-16 15s-15-7-15-15c0-67 54-121 121-121z" horiz-adv-x="1000" />

<glyph glyph-name="store" unicode="&#xe80b;" d="M891 321v-331c0-43-35-78-78-78h-688c-43 0-78 35-78 78v331c0 8 7 15 16 15s15-7 15-15v-331c0-25 21-46 47-46h170v263c0 43 35 78 78 78h192c43 0 78-35 78-78v-201c0-9-7-16-16-16s-16 7-16 16v201c0 26-21 47-46 47h-192c-26 0-47-21-47-47v-263h127v246c0 8 7 15 16 15s15-7 15-15v-246h329c25 0 46 21 46 46v331c0 8 7 15 16 15s16-7 16-15z m-789 279c0-9 7-16 15-16 850 0 808-1 814 4 4 2 6 6 6 10 1 6 7-9-102 243-3 5-8 9-15 9h-703c-6 0-12-4-14-9l-102-235c-1-4-1 3-1-103 0-71 58-129 129-129 49 0 91 27 113 68 49-90 178-90 227 0 49-90 177-90 226 0 22-41 65-68 114-68 71 0 129 58 129 129 0 9-7 16-16 16s-16-7-16-16c0-54-43-98-97-98s-98 44-98 98c0 9-7 16-16 16s-15-7-15-16c0-54-44-98-98-98s-98 44-98 98c0 9-7 16-15 16s-16-7-16-16c0-54-44-98-97-98-53 0-98 43-98 99 0 8-7 15-16 15s-15-7-15-15c0-56-45-99-98-99-54 0-98 44-98 98v94l97 222h682l88-203h-781c-8 0-15-7-15-16z" horiz-adv-x="1000" />

<glyph glyph-name="shopping-list" unicode="&#xe80c;" d="M900 119l-27 251c-3 31-30 55-62 55h-20v46c0 60-49 110-110 110-60 0-109-50-109-110v-46h-20c-32 0-59-24-62-55l-27-251c-4-37 25-70 62-70h313c37 0 66 33 62 70z m-62-38h-313c-19 0-33 16-31 34l27 251c2 16 15 28 31 28h20v-39c0-9 7-16 16-16s15 7 15 16v116c0 43 35 78 78 78 44 0 79-35 79-78v-46h-99c-9 0-16-7-16-15s7-16 16-16h99v-39c0-9 7-16 15-16s16 7 16 16v39h20c16 0 29-12 31-28l27-251c2-18-12-34-31-34z m-102-90c-8 0-15-7-15-16 0-17-14-31-32-31h-590c-17 0-31 14-31 31v813c0 17 14 31 31 31h440v-119c0-35 28-63 62-63h135c14 0 21 17 11 27-195 195-183 184-189 186-3 0 22 0-459 0-34 0-62-28-62-62v-813c0-35 28-63 62-63h590c35 0 63 28 63 63 0 9-7 16-16 16z m-135 677c-17 0-31 14-31 32v97l128-129z m-316-48c0 26-21 47-47 47h-31c-26 0-47-22-47-47v-32c0-26 21-47 47-47h31c26 0 47 21 47 47z m-31-32c0-8-7-15-16-15h-31c-9 0-16 7-16 15v32c0 8 7 15 16 15h31c9 0 16-7 16-15z m31-203c0 26-21 47-47 47h-31c-26 0-47-21-47-47v-31c0-26 21-47 47-47h31c26 0 47 21 47 47z m-31-31c0-9-7-16-16-16h-31c-9 0-16 7-16 16v31c0 9 7 16 16 16h31c9 0 16-7 16-16z m-16-156h-31c-26 0-47-21-47-47v-31c0-26 21-47 47-47h31c26 0 47 21 47 47v31c0 26-21 47-47 47z m16-78c0-9-7-16-16-16h-31c-9 0-16 7-16 16v31c0 8 7 15 16 15h31c9 0 16-7 16-15z m215 468h-108c-8 0-15 7-15 16s7 16 15 16h108c8 0 15-7 15-16s-7-16-15-16z m-45-234h-63c-8 0-15 7-15 16s7 15 15 15h63c9 0 16-7 16-15s-7-16-16-16z m-24-203c9 0 16-7 16-16s-7-15-16-15h-39c-8 0-15 7-15 15s7 16 15 16z" horiz-adv-x="1000" />

<glyph glyph-name="gift" unicode="&#xe80d;" d="M860 631h-199c26 23 42 57 42 94 0 104-121 162-202 98-7-5-8-15-3-22 6-7 16-8 22-2 61 48 152 4 152-74 0-50-39-90-87-94h-100v94c0 69-56 125-125 125s-125-56-125-125c0-37 16-71 42-94h-199c-43 0-78-35-78-78v-80c0-39 29-72 67-77v-406c0-43 35-78 78-78h648c43 0 78 35 78 78v337c0 8-7 15-15 15s-16-7-16-15v-337c0-26-21-47-47-47h-379v452h110v-395c0-9 7-16 15-16s16 7 16 16v395h174c8 0 15 7 15 15s-7 16-15 16h-104v174h235c25 0 46-21 46-47v-80c0-26-21-47-46-47h-31c-8 0-15-7-15-16s7-15 15-15h31c43 0 78 35 78 78v80c0 43-35 78-78 78z m-594 94c0 52 42 94 94 94s93-42 93-94v-94h-100c-49 4-87 44-87 94z m117-782h-238c-26 0-47 21-47 47v405h285z m211 483h-516c-26 0-47 21-47 47v80c0 26 21 47 47 47h235v-125c0-9 7-16 15-16s16 7 16 16v125h250z" horiz-adv-x="1000" />

<glyph glyph-name="bag" unicode="&#xe80e;" d="M679-3c4-45-32-85-78-85h-516c-46 0-82 40-78 85l48 540c3 40 37 71 78 71h48v80c0 89 73 162 162 162s162-73 162-162v-80h48c41 0 75-31 78-71l1-13c1-9-5-16-14-17-8-1-16 6-17 14l-1 13c-2 24-22 43-47 43h-48v-71c0-8-7-15-15-15s-16 7-16 15v71l-205 0c-9 0-16 7-16 15s7 16 16 16l205 0v80c0 72-59 131-131 131s-131-59-131-131v-182c0-8-7-15-15-15s-16 7-16 15v71h-48c-25 0-45-19-47-43l-48-539c-2-28 20-51 47-51h516c28 0 49 23 47 51l-3 27c-1 9 6 17 14 17 9 1 17-5 17-14z m-426 50h-113c-9 0-16-7-16-15s7-16 16-16h113c9 0 16 7 16 16s-7 15-16 15z m0 78h-113c-9 0-16-7-16-15s7-16 16-16h113c9 0 16 7 16 16s-7 15-16 15z m282 245c-21-13-37-31-47-53-3-8 0-18 8-21 8-4 17 0 21 8 7 16 19 30 34 39 7 4 10 14 5 21-4 8-14 10-21 6z m341-436c-14 0-28 6-39 16l-139 140c-136-78-306 21-306 178 0 113 92 205 205 205s205-92 205-205c0-65-30-123-78-161l135-135c9-9 24-9 33 0s10 24 0 34l-94 94c-6 6-6 16 0 22 6 6 16 6 22 0l95-94c34-35 9-94-39-94z m-279 160c96 0 174 78 174 174s-78 174-174 174-174-78-174-174 78-174 174-174z" horiz-adv-x="1000" />

<glyph glyph-name="tshirt" unicode="&#xe80f;" d="M938 778v-253c0-8-7-15-16-15s-16 7-16 15v253c0 9 7 16 16 16s16-7 16-16z m-469-145c90 0 165 69 173 158l97-10c9-1 17 5 18 14 0 8-6 16-14 17l-114 11c-9 1-17-6-17-15 0-79-64-144-143-144s-143 65-143 144c0 8-7 15-16 15s-16-7-16-15c0-96 79-175 175-175z m-295-571c0-8 7-15 15-15h559c9 0 16 7 16 15v463c0 9-7 16-16 16s-15-7-15-16v-447h-528v447c0 9-7 16-16 16h-158v223l177 18c9 1 15 8 14 17 0 9-8 15-17 14l-191-19c-8-1-14-8-14-16v-253c0-8 7-15 16-15h158z m745-97c-1 5-1 4-31 34-6 6-16 6-22 0-6-6-7-16 1-23h-717c-8 0-15-7-15-16s7-15 15-15h717c-8-8-7-17-1-23 6-6 16-6 22 0 18 18 28 27 29 29 3 4 4 9 2 14z m-828 34c-6 6-16 6-22 0l-27-28c-6-6-6-16 0-22l27-27c3-3 7-5 11-5 14 0 21 17 11 27l-16 16 16 17c6 6 6 16 0 22z m735 793v-630c0-9 7-16 16-16s15 7 15 16v630c4-3 7-5 12-5 14 0 21 16 11 26-1 1-27 28-28 29-3 2-8 3-12 3-7-1-7-3-37-32-6-6-6-16 0-22 6-5 16-7 23 1z m5-739c6-6 16-6 22 0l27 27c6 6 6 16 0 22-6 6-16 6-22 0l-16-16-16 16c-7 6-16 6-23 0-6-6-6-16 0-22z" horiz-adv-x="1000" />

<glyph glyph-name="percentage" unicode="&#xe810;" d="M728 67v518c0 9-3 17-10 23l-229 203c-11 10-29 10-41 0l-229-203c-6-6-10-14-10-23v-610c0-17 14-31 31-31h457c17 0 31 14 31 31 0 9 7 16 16 16s16-7 16-16c0-34-28-62-63-62h-457c-34 0-62 28-62 62v610c0 18 7 35 21 47l228 202c24 21 60 21 83 0l229-202c13-12 21-29 21-47v-518c0-9-7-16-16-16s-16 7-16 16z m-330 66l153 153c6 6 6 16 0 22-6 6-16 6-22 0l-153-153c-6-6-6-16 0-22 6-7 16-7 22 0z m116 16c0 17 14 31 31 31s31-14 31-31-14-31-31-31-31 14-31 31z m31 0c0-1 1-1 1 0 0 0-1 0-1 0z m-153 184c17 0 31-14 31-31s-14-31-31-31-31 14-31 31 14 31 31 31z m0-31c0-1 1-1 1 0s-1 0-1 0z m77 376c16 0 29-13 29-29 0-9 7-16 16-16s15 7 15 16c0 33-27 61-60 61-34 0-61-28-61-61s27-61 61-61c8 0 15 7 15 16s-7 16-15 16c-16 0-30 13-30 29s14 29 30 29z" horiz-adv-x="1000" />

<glyph glyph-name="globe" unicode="&#xe811;" d="M629 7c-41-20-85-33-130-38 14 11 30 25 47 42 6 6 6 16-1 22-6 6-16 6-22 0-23-24-45-42-60-53v386h66c9 0 16 7 16 15s-7 16-16 16h-66v386c41-31 125-104 173-219 4-8 13-12 21-8 8 3 12 12 8 20-45 107-119 179-166 218 139-17 260-102 322-231 4-7 13-11 21-7 8 4 11 13 7 21-73 151-227 251-402 251-247 0-447-200-447-447 0-247 200-447 447-447 69 0 134 15 196 45 7 4 11 13 7 21-4 8-13 11-21 7z m-197-27c-24 17-62 49-98 94-72 88-109 186-113 292h211z m0 817v-400h-211c5 151 80 260 143 326 6 6 6 16 0 22-6 6-16 6-22 0-67-70-147-187-152-348h-158c8 217 183 392 400 400z m-400-431h158c6-207 135-340 205-397-200 25-356 192-363 397z m905-263l-24 223c-3 25-24 44-49 44h-20v36c0 53-42 95-95 95s-95-42-95-95v-36h-19c-25 0-47-19-49-44l-25-223c-3-30 20-55 50-55h277c29 0 52 25 49 55z m-49-24h-277c-11 0-20 9-19 20l25 224c1 9 9 16 18 16h19v-31c0-8 7-15 16-15s16 7 16 15v98c0 36 28 64 63 64 35 0 64-28 64-64v-36h-81c-9 0-16-7-16-15s7-16 16-16h81v-31c0-8 7-15 16-15s15 7 15 15v31h20c9 0 17-7 18-16l24-224c1-11-7-20-18-20z" horiz-adv-x="1000" />

<glyph glyph-name="save-money" unicode="&#xe812;" d="M922 439h-51c-8 21-17 41-29 59 12 14 19 29 18 46-2 43-59 87-105 76-66-15-86-130-48-161 26-22 80-5 112 18 11-18 19-38 25-58 2-7 8-11 15-11h47v-131h-47c-7 0-13-5-15-11-17-57-53-109-105-144-4-3-7-8-7-13v-69c0-17-14-31-31-31h-68c-17 0-31 14-31 31v20c0 9-7 16-16 16h-117c-9 0-16-7-16-16s7-16 16-16h101v-4c0-34 28-62 63-62h68c35 0 63 28 63 62v61c51 37 87 88 107 145h51c9 0 16 7 16 15v162c0 9-7 16-16 16z m-139 53c-27-14-50-14-57-9-6 5-10 26-4 54 5 22 18 48 39 53 2 0 21 5 46-14 13-10 22-23 22-34 1-16-18-36-46-50z m-375-432v-20c0-34-28-62-62-62h-69c-34 0-62 28-62 62v61c-69 51-116 131-121 225h-11c-27 0-49 22-49 49 0 10-8 18-18 18-9 0-16 7-16 15s7 16 16 16c27 0 49-22 49-49 0-10 8-18 18-18h11c5 91 52 174 124 225 7 5 16 4 21-3 5-7 4-17-3-22-148-106-149-329 3-435 5-3 7-8 7-13v-69c0-17 14-31 31-31h69c17 0 31 14 31 31v20c0 9 7 16 16 16s15-7 15-16z m-119 428h24c-26 32-40 71-40 113 0 101 83 184 184 184 117 0 205-110 179-225-2-8-10-14-19-12-8 2-13 11-11 19 21 96-52 186-149 186-84 0-152-68-152-152 0-43 18-84 50-113h270c9 0 16-7 16-16s-7-16-16-16c-10 0-334 0-336 0-9 0-16 7-16 16s7 16 16 16z" horiz-adv-x="1000" />

<glyph glyph-name="truck" unicode="&#xe813;" d="M217 368c0-9-7-16-16-16h-53c-8 0-15 7-15 16s7 15 15 15h53c9 0 16-7 16-15z m721 152v-363c0-35-28-63-63-63h-21c-7-43-45-76-90-76-51 0-92 41-92 92s41 92 92 92c45 0 83-33 90-77h21c17 0 31 14 31 32v158h-200c-45 0-81 36-81 80v109c0 9 7 16 16 16s15-7 15-16v-109c0-27 22-49 50-49h200v174c0 17-14 31-31 31h-297c-17 0-31-14-31-31v-209c0-34-28-63-63-63-46 0-405 0-421 0-18 0-32-14-32-31v-60c0-9-7-16-15-16s-16 7-16 16v60c0 34 26 61 59 63-5 9-8 20-8 31v371c0 35 28 63 62 63h371c35 0 63-28 63-63v-51c0-8-7-15-16-15s-15 7-15 15v51c0 17-14 31-32 31h-240v-94c0-9 7-16 16-16h80c9 0 16 7 16 16v49c0 9 7 16 15 16s16-7 16-16v-49c0-26-21-47-47-47h-80c-26 0-47 21-47 47v94h-100c-17 0-31-14-31-31v-371c0-17 14-31 31-31h371c18 0 32 14 32 31v209c0 34 28 62 62 62h297c35 0 63-28 63-62z m-114-410c0 33-27 60-60 60s-61-27-61-60 27-61 61-61 60 27 60 61z m-416 0c0-51-41-92-92-92-31 0-59 16-76 41-16-25-44-41-76-41-51 0-92 41-92 92s41 92 92 92c32 0 60-17 76-41 17 24 45 41 76 41 51 0 92-42 92-92z m-183 0c0 33-28 60-61 60s-60-27-60-60 27-61 60-61 61 27 61 61z m152 0c0 33-27 60-61 60s-60-27-60-60 27-61 60-61 61 27 61 61z m246 15h-166c-9 0-16-7-16-15s7-16 16-16h166c9 0 16 7 16 16s-7 15-16 15z" horiz-adv-x="1000" />

<glyph glyph-name="price-tag" unicode="&#xe814;" d="M728 67v518c0 9-3 17-10 23l-229 203c-11 10-29 10-41 0l-97-86c17-21 39-37 65-47 10 19 30 32 53 32 33 0 60-28 60-61 0-9-7-16-15-16s-16 7-16 16c0 16-13 29-29 29s-30-13-30-29 14-29 30-29c8 0 15-7 15-16s-7-16-15-16c-33 0-60 27-61 60-32 11-60 31-81 56l-108-96c-6-6-10-14-10-23v-610c0-17 14-31 31-31h457c17 0 31 14 31 31 0 9 7 16 16 16s16-7 16-16c0-34-28-62-63-62h-457c-34 0-62 28-62 62v610c0 18 7 35 21 47l110 98c-15 27-24 58-24 91 0 9 7 16 16 16s15-7 15-16c0-25 6-49 17-70l94 83c24 21 60 21 83 0l229-202c13-12 21-29 21-47v-518c0-9-7-16-16-16s-16 7-16 16z m-156 357c43 0 78-35 78-78v-207c0-43-35-78-78-78h-207c-43 0-78 35-78 78v207c0 43 35 78 78 78z m0-31h-207c-26 0-47-21-47-47v-207c0-26 21-47 47-47h207c26 0 47 21 47 47v207c0 26-21 47-47 47z" horiz-adv-x="1000" />

<glyph glyph-name="bag-1" unicode="&#xe815;" d="M727-88h-516c-46 0-82 40-78 85l48 540c3 40 37 71 77 71h49v80c0 89 72 162 162 162s162-73 162-162v-80h48c9 0 16-7 16-16s-7-15-16-15h-48v-71c0-8-7-15-16-15s-15 7-15 15v71h-205c-9 0-16 7-16 15s7 16 16 16h205v80c0 72-59 131-131 131s-131-59-131-131v-182c0-8-7-15-16-15s-15 7-15 15v71h-49c-24 0-44-19-46-43l-48-539c-2-28 19-51 47-51h516c27 0 49 23 46 51l-47 539c-1 8 5 16 14 17 9 1 16-6 17-14l48-540c4-45-32-85-78-85z m-348 135h-113c-9 0-16-7-16-15s7-16 16-16h113c9 0 16 7 16 16s-7 15-16 15z m0 78h-113c-9 0-16-7-16-15s7-16 16-16h113c9 0 16 7 16 16s-7 15-16 15z" horiz-adv-x="1000" />

<glyph glyph-name="megaphone" unicode="&#xe816;" d="M758 519c61 50 40 148-36 169-20 5-41 4-60-3l-60 105c-25 42-86 43-112 2-75-118-174-219-292-295-6-4-9-13-5-21 1-1 101-174 102-176 4-7 14-10 21-5 8 4 10 14 6 21l-94 163c112 75 212 174 288 296 14 22 46 21 59-1l217-375c12-23-3-51-29-52-144-5-285-42-414-108 0 0-146-85-156-91-27-15-60-6-75 20l-79 138c-15 26-6 59 20 74l95 55c7 5 10 14 6 22-5 7-14 10-22 5l-95-55c-41-23-55-76-31-117l79-137c23-41 76-55 117-32l4 2 97-169c14-24 46-33 70-19l34 20c24 14 33 45 19 70l-70 120c-4 7-13 10-21 5s-10-13-6-21l70-120c5-9 2-21-8-27l-34-19c-9-6-21-3-26 7l-98 169 125 72c122 63 259 100 401 105 49 2 78 56 54 98z m-4 108c15-27 10-60-12-80l-64 110c28 8 60-3 76-30z m152 69l-40-23c-7-4-17-2-21 6-5 7-2 17 5 21l41 23c7 5 17 2 21-5 5-8 2-17-6-22z m-173 89l9 37c3 9 11 14 20 11 8-2 13-10 11-19l-10-37c-2-8-11-13-19-11-9 3-14 11-11 19z m204-255c-2-7-8-12-15-12-3 0-1 0-41 10-8 3-13 11-11 20s11 13 19 11l37-10c8-3 13-11 11-19z" horiz-adv-x="1000" />

<glyph glyph-name="bars-code" unicode="&#xe817;" d="M0 620v128c0 35 28 63 63 63h128c9 0 16-7 16-16s-7-15-16-15h-128c-18 0-32-14-32-32v-128c0-9-7-16-15-16s-16 7-16 16z m875 191h-129c-8 0-15-7-15-16s7-15 15-15h129c17 0 31-14 31-32v-128c0-9 7-16 16-16s16 7 16 16v128c0 35-28 63-63 63z m-684-828h-128c-18 0-32 14-32 31v129c0 9-7 16-15 16s-16-7-16-16v-129c0-34 28-62 63-62h128c9 0 16 7 16 15s-7 16-16 16z m731 176c-9 0-16-7-16-16v-129c0-17-14-31-31-31h-129c-8 0-15-7-15-16s7-15 15-15h129c35 0 63 28 63 62v129c0 9-7 16-16 16z m16 281c0-9-7-16-16-16h-906c-9 0-16 7-16 16s7 16 16 16h109v175c0 9 7 16 16 16h93c9 0 16-7 16-16v-175h63v175c0 9 7 16 15 16h94c9 0 16-7 16-16v-175h62v175c0 9 7 16 16 16h93c9 0 16-7 16-16v-175h63v175c0 9 7 16 15 16h94c9 0 16-7 16-16v-175h109c9 0 16-7 16-16z m-219 16h62v160h-62z m-188 0h63v160h-63z m-187 0h62v160h-62z m-188 0h63v160h-63z m94-94v-231c0-8-7-15-16-15h-93c-9 0-16 7-16 15v231c0 8 7 15 16 15h93c9 0 16-7 16-15z m-31-16h-63v-199h63z m94-117v133c0 8 7 15 15 15h94c9 0 16-7 16-15v-133c0-9-7-16-16-16h-94c-8 0-15 7-15 16z m31 16h62v101h-62z m281 117v-133c0-9-7-16-16-16h-93c-9 0-16 7-16 16v133c0 8 7 15 16 15h93c9 0 16-7 16-15z m-31-16h-63v-101h63z m203-230h-94c-8 0-15 7-15 15v231c0 8 7 15 15 15h94c9 0 16-7 16-15v-231c0-8-7-15-16-15z m-16 230h-62v-199h62z m-281-199h-172c-8 0-15-7-15-16s7-15 15-15h172c9 0 16 7 16 15s-7 16-16 16z m107 0h-29c-8 0-15-7-15-16s7-15 15-15h29c9 0 16 7 16 15s-7 16-16 16z" horiz-adv-x="1000" />

<glyph glyph-name="shopping-basket" unicode="&#xe818;" d="M938 474v-66c0-35-28-63-63-63h-715c-9 0-16 7-16 16s7 15 16 15h715c17 0 31 14 31 32v66c0 17-14 31-31 31h-812c-18 0-32-14-32-31v-66c0-18 14-32 32-32 16 0 21 2 27-5 4-4 0 11 72-351 4-22 23-38 46-38h522c22 0 42 16 46 38l53 266c1 8 10 14 18 12 8-2 14-10 12-18l-52-266c-8-37-40-63-77-63h-522c-38 0-70 26-77 63l-66 331c-40 0-65 30-65 63v66c0 35 28 63 63 63h46v78c0 34 28 62 63 62h219c34 0 62-28 62-62v-30c0-8-7-15-15-15s-16 7-16 15v30c0 17-14 31-31 31h-219c-17 0-31-14-31-31v-78h734c35 0 63-28 63-63z m-485-217v-187c0-9 7-16 16-16s15 7 15 16v187c0 9-7 16-15 16s-16-7-16-16z m-156-29v-129c0-9 7-16 16-16s15 7 15 16v129c0 9-7 16-15 16s-16-7-16-16z m312 0v-129c0-9 7-16 16-16s16 7 16 16v129c0 9-7 16-16 16s-16-7-16-16z m-242 490c9 0 16 7 16 16v15c0 18 14 32 31 32h336c17 0 31-14 31-32v-159c0-8 7-15 16-15s16 7 16 15v159c0 35-28 63-63 63h-336c-34 0-62-28-62-63v-15c0-9 7-16 15-16z" horiz-adv-x="1000" />

<glyph glyph-name="headphone" unicode="&#xe819;" d="M31 398v-121c0-17 14-31 32-31 8 0 15-7 15-16s-7-16-15-16c-35 0-63 28-63 63v121c0 34 28 62 63 62 8 0 15-7 15-15s-7-16-15-16c-18 0-32-14-32-31z m844 62c-9 0-16-7-16-15s7-16 16-16c17 0 31-14 31-31v-121c0-17-14-31-31-31-9 0-16-7-16-16s7-16 16-16c35 0 63 28 63 63v121c0 34-28 62-63 62z m-680 80v-19h4c35 0 63-28 63-63v-242c0-34-28-62-63-62h-31c-34 0-62 28-62 62v242c0 34 25 61 58 63v19c0 168 137 305 305 305s304-137 304-305v-19c33-2 59-29 59-63v-242c0-34-28-62-62-62h-32c-34 0-62 28-62 62v242c0 35 28 63 62 63h4v19c0 151-122 274-273 274s-274-123-274-274z m575-50h-32c-17 0-31-14-31-32v-242c0-17 14-31 31-31h32c17 0 31 14 31 31v242c0 18-14 32-31 32z m-602 0c-17 0-31-14-31-32v-242c0-17 14-31 31-31h31c17 0 32 14 32 31v242c0 18-15 32-32 32z m725-334c0-104-84-188-188-188h-29c-7-29-33-51-65-51-36 0-66 30-66 67s30 66 66 66c32 0 58-21 65-51h29c86 0 156 71 156 157 0 8 7 15 16 15s16-7 16-15z m-246-172c0 19-16 35-36 35s-35-16-35-35 16-35 35-35 36 15 36 35z m-38 339c2 8-3 17-11 19-8 3-17-2-19-10-14-49-60-83-110-83s-96 34-110 83c-3 8-11 13-20 10-8-2-13-11-10-19 18-62 75-105 140-105s122 43 140 105z m-239 152c17 0 31-13 31-31s-14-30-31-30-31 13-31 30 14 31 31 31z m0-31c0 0 0 0 0 0s0 1 0 0z m198 30c16 0 30-13 30-30s-14-29-30-29-30 13-30 29 13 30 30 30z m-2-30c0-1 3-1 3 0 0 2-3 2-3 0z" horiz-adv-x="1000" />

<glyph glyph-name="box-4" unicode="&#xe81a;" d="M742-21c0-9-7-16-15-16h-649c-43 0-78 35-78 78v680c0 43 35 78 78 78h680c43 0 78-35 78-78v-213c0-8-7-15-16-15s-15 7-15 15v213c0 26-21 47-47 47h-446v-176c0-12 13-20 23-14l62 33c14 7 30 7 44 0l62-33c11-6 23 2 23 14v117c0 9 7 16 16 16s15-7 15-16v-117c0-36-37-58-69-42l-62 33c-4 3-10 3-14 0l-62-33c-31-16-69 6-69 42v176h-203c-26 0-47-21-47-47v-680c0-25 21-47 47-47h649c8 0 15-7 15-15z m159 197l-91-121c-25-33-75-33-100 0l-92 121c-54 71-47 170 16 233 70 70 182 70 252 0 62-63 69-162 15-233z m-141 254c-121 0-190-139-117-235l92-121c12-16 37-16 50 0l91 121c73 96 5 235-116 235z m65-81c57-58 16-157-65-157-82 0-123 99-65 157 36 35 94 35 130 0z m-65-5c-54 0-81-65-43-103 24-24 62-24 86 0 38 38 11 103-43 103z m-475-151c0 9-7 16-16 16h-111c-8 0-15-7-15-16s7-16 15-16h111c9 0 16 7 16 16z m-8-103c8 4 10 14 6 21-4 8-13 11-21 7-8-5-11-14-7-22 5-7 14-10 22-6z m-119 29c-8 0-15-7-15-15s7-16 15-16h51c8 0 15 7 15 16s-7 15-15 15z" horiz-adv-x="1000" />

<glyph glyph-name="invoice" unicode="&#xe81b;" d="M465 221c0-113 92-205 205-205s205 92 205 205c0 74-39 139-97 175v257c0 5-3 9-7 12-194 194-181 183-188 185-2 0 22 0-458 0-35 0-63-28-63-62v-813c0-35 28-63 63-63h590c34 0 62 28 62 63 0 9-7 16-15 16s-16-7-16-16c0-17-14-31-31-31h-590c-17 0-31 14-31 31v813c0 17 14 31 31 31h439v-119c0-35 28-63 63-63h119v-225c-25 10-53 15-82 14v112c0 25-21 46-47 46h-394c-26 0-47-21-47-46v-200c0-26 21-47 47-47h205c9 0 16 7 16 16s-7 16-16 16h-70v99h140c9 0 16 7 16 16v115h103c9 0 16-7 16-15v-115c-95-18-168-101-168-202z m162 447c-17 0-31 14-31 32v97l128-129h-97z m-404-115h103v-99h-119v84c0 8 7 15 16 15z m103-230h-103c-9 0-16 7-16 15v84h119z m157 131h-125v99h125z m361-233c0-96-78-174-174-174s-174 78-174 174 78 174 174 174 174-78 174-174z m-158-39v6c0 7-5 13-11 15l-19 6c-20 6-33 24-33 45v6c0 21 13 38 31 44v7c0 9 7 16 16 16s16-7 16-16v-7c18-6 31-23 31-44 0-8-7-15-16-15s-15 7-15 15c0 9-7 16-16 16s-16-7-16-16v-6c0-7 5-13 11-15l19-6c20-6 33-24 33-45v-6c0-22-16-41-37-46v-5c0-8-7-15-16-15s-15 7-15 15v9c-15 8-26 24-26 42 0 9 7 16 16 16s15-7 15-16c0-9 7-16 16-16s16 7 16 16z m-510 23c0 9 7 16 16 16h152c9 0 16-7 16-16s-7-15-16-15h-152c-9 0-16 7-16 15z m0-117c0 9 7 16 16 16h191c9 0 16-7 16-16s-7-15-16-15h-191c-9 0-16 7-16 15z" horiz-adv-x="1000" />

<glyph glyph-name="mobile-banking" unicode="&#xe81c;" d="M381-15c-9 0-16 7-16 15s7 16 16 16h39c9 0 16-7 16-16s-7-15-16-15z m387 670h-75v117c0 43-35 78-78 78h-429c-43 0-79-35-79-78v-781c0-44 36-79 79-79h429c43 0 78 35 78 79v162c0 8-7 15-15 15s-16-7-16-15v-72h-447c-9 0-16-7-16-16s7-16 16-16h447v-58c0-26-21-47-47-47h-429c-26 0-47 21-47 47v781c0 26 21 47 47 47h429c26 0 47-21 47-47v-117h-246v23c0 9-7 16-16 16s-15-7-15-16v-476c0-9 7-16 15-16s16 7 16 16v421h352c17 0 31-14 31-31v-27h-326c-9 0-16-7-16-16s7-15 16-15h326v-59h-326c-9 0-16-7-16-16s7-15 16-15h326v-156c0-18-14-32-31-32h-276c-8 0-15-7-15-15s7-16 15-16h276c34 0 62 28 62 63v304c0 35-28 63-62 63z" horiz-adv-x="1000" />

<glyph glyph-name="shopping-bag" unicode="&#xe81d;" d="M623-72c0-9-7-16-15-16h-516c-46 0-82 40-78 85l48 540c3 40 37 71 78 71h48v80c0 89 72 162 162 162s162-73 162-162v-80h48c9 0 16-7 16-16s-7-15-16-15h-48v-71c0-8-7-15-16-15s-15 7-15 15v71h-205c-9 0-16 7-16 15s7 16 16 16h205v80c0 72-59 131-131 131s-131-59-131-131v-182c0-8-7-15-16-15s-15 7-15 15v71h-48c-25 0-45-19-47-43l-48-539c-2-28 19-51 47-51h516c8 0 15-7 15-16z m283 281l-52-42 8-66c3-30-22-55-52-52l-66 8-42-52c-19-24-54-24-73 0l-42 51-66-7c-30-3-55 22-52 52l7 66-51 42c-24 19-24 54 0 73l51 42-7 66c-3 30 22 55 52 52l66-8 42 52c19 24 54 24 73 0l42-52 66 8c30 3 55-22 52-52l-8-66 52-42h0c24-19 24-54 0-73z m-19 49l-59 47c-4 3-6 8-6 14l8 74c2 10-7 19-17 18l-74-9c-6 0-11 2-14 6l-47 59c-7 8-19 8-25 0l-47-59c-3-4-8-6-14-6l-74 9c-10 1-19-8-18-18l8-74c1-6-1-11-5-14l-59-47c-8-7-8-19 0-25l59-47c4-3 6-8 5-14l-8-74c-1-10 8-19 18-18l74 8c6 1 11-1 14-5l47-59c7-8 18-8 25 0l47 59c3 4 8 6 14 6l74-9c10-1 19 8 18 18l-9 74c0 6 2 11 6 14l59 47c7 7 7 18 0 25z m-155 52c-6 6-16 6-22 0l-117-117c-6-6-6-16 0-22 6-6 16-6 22 0l117 117c6 6 6 16 0 22z m20-124c0-15-12-27-27-27s-27 12-27 27 12 27 27 27 27-12 27-27z m-23 0c0 2-2 4-4 4s-4-2-4-4 2-4 4-4 4 2 4 4z m-149 117c0 15 13 28 28 28s27-13 27-28-12-27-27-27-28 12-28 27z m24 0c0-2 2-4 4-4s4 2 4 4-2 4-4 4-4-2-4-4z" horiz-adv-x="1000" />

<glyph glyph-name="credit-card-1" unicode="&#xe81e;" d="M938 649v-535c0-43-35-78-79-78h-781c-43 0-78 35-78 78v234c0 9 7 16 16 16s15-7 15-16v-234c0-26 21-47 47-47h781c26 0 47 21 47 47v535c0 26-21 47-47 47h-781c-26 0-47-21-47-47v-63h801c9 0 16-7 16-15s-7-16-16-16h-801v-101h801c9 0 16-7 16-16s-7-16-16-16h-816c-9 0-16 7-16 16v211c0 43 35 78 78 78h781c44 0 79-35 79-78z m-125-406c0 40-45 64-79 42 33-54-6-124-70-124-45 0-82 36-82 82 0 67 77 106 131 65 54 40 131 2 131-65 0-46-37-82-82-82-9 0-16 7-16 15s7 16 16 16c28 0 51 23 51 51z m-98 0c0 28-23 50-51 50s-51-22-51-50 23-51 51-51 51 23 51 51z m-572 33h130c9 0 16 7 16 15s-7 16-16 16h-130c-9 0-16-7-16-16s7-15 16-15z m0-98h130c9 0 16 7 16 16s-7 15-16 15h-130c-9 0-16-7-16-15s7-16 16-16z" horiz-adv-x="1000" />

<glyph glyph-name="credit-card" unicode="&#xe81f;" d="M917 719h-834c-46 0-83-37-83-84v-225c0-9 8-16 17-16h871c9 0 16 7 16 16s-7 17-16 17h-855v108h855c9 0 16 8 16 17s-7 17-16 17h-855v66c0 28 23 50 50 50h834c27 0 50-22 50-50v-570c0-28-23-50-50-50h-834c-27 0-50 22-50 50v250c0 9-7 16-16 16s-17-7-17-16v-250c0-46 37-84 83-84h834c46 0 83 38 83 84v570c0 47-37 84-83 84z m-765-481h140c9 0 16 7 16 16s-7 17-16 17h-140c-9 0-17-8-17-17s8-16 17-16z m0-105h140c9 0 16 8 16 17s-7 17-16 17h-140c-9 0-17-8-17-17s8-17 17-17z" horiz-adv-x="1000" />

<glyph glyph-name="coupon-1" unicode="&#xe820;" d="M938 670v-382c0-44-35-79-79-79h-461c-8 0-15 7-15 16s7 16 15 16h461c26 0 47 21 47 47v382c0 26-21 47-47 47h-781c-26 0-47-21-47-47v-382c0-26 21-47 47-47h98c8 0 15-7 15-16s-7-16-15-16h-98c-43 0-78 35-78 79 0 0 0 319 0 382 0 43 35 78 78 78h781c44 0 79-35 79-78z m-653-158v135c0 9-7 16-15 16s-16-7-16-16v-135c0-8 7-15 16-15s15 7 15 15z m420 44l-153-153c-6-7-6-16 0-23 6-6 16-6 22 0l153 153c6 7 6 16 0 23-6 6-16 6-22 0z m16-128c17 0 31-14 31-31s-14-31-31-31-31 14-31 31 14 31 31 31z m0-31c0-1 0-1 0 0 0 0 0 0 0 0z m-122 153c0-17-14-31-31-31s-31 14-31 31 14 31 31 31 31-14 31-31z m-31 0c0 0 0-1 0-1 1 0 1 1 0 1z m-304-475c-9-35-41-61-79-61-46 0-83 37-83 83s37 83 83 83c31 0 58-17 72-43l5 11-19 49c-16 39-16 83 0 123l97 253c4 11 18 14 26 6 47-48 61-119 35-181z m15 114l93 221c18 42 13 90-12 127l-88-228c-21-55-2-97 7-120z m-43-92c0 29-23 52-51 52s-52-23-52-52 23-52 52-52 51 24 51 52z m239 0c0-46-38-83-83-83s-83 37-83 83 37 83 83 83 83-37 83-83z m-32 0c0 29-23 52-51 52s-52-23-52-52 23-52 52-52 51 24 51 52z" horiz-adv-x="1000" />

<glyph glyph-name="tshirt-1" unicode="&#xe821;" d="M559 49c0-9-7-16-16-16h-354c-8 0-15 7-15 16v447h-158c-9 0-16 7-16 16v253c0 8 6 15 14 15l191 19c9 1 17-5 17-14 1-8-5-16-14-17l-177-17v-224h158c9 0 16-7 16-15v-448h338c9 0 16-7 16-15z m364 731l-294 30c-9 1-17-6-17-16 0-79-64-143-143-143s-143 64-143 143c0 9-7 16-16 16s-16-7-16-16c0-96 79-174 175-174 90 0 165 69 173 157l264-26v-224h-158c-8 0-15-7-15-15v-104c0-9 7-16 15-16s16 7 16 16v88h158c9 0 16 7 16 16v253c0 8-7 15-15 15z m-62-500l-79 69c-6 6-16 6-22-1-5-6-5-16 2-22l78-69c5-5 8-11 8-18v-232c0-13-11-23-24-23h-156c-13 0-23 10-23 23v232c0 7 2 13 7 18l33 29c16-15 37-24 60-24 9 0 16 7 16 16s-7 16-16 16c-31 0-56 25-56 55 0 9-7 16-16 16s-15-7-15-16c0-13 3-26 9-38l-35-31c-12-10-19-25-19-41v-232c0-30 25-54 55-54h156c30 0 55 24 55 54v232c0 16-7 31-18 41z" horiz-adv-x="1000" />

<glyph glyph-name="checkup" unicode="&#xe822;" d="M278 536l-56-55c-6-6-16-6-22 0l-26 26c-7 6-7 16 0 22 6 6 16 6 22 0l15-15 45 44c6 6 16 6 22 0 6-6 6-16 0-22z m0-179c-6 6-16 6-22 0l-45-44-15 15c-6 6-16 6-22 0-7-6-7-16 0-22l26-27c6-6 16-6 22 0l56 56c6 6 6 16 0 22z m375-429c0-9-7-16-15-16h-512c-43 0-78 35-78 79v703c0 43 35 78 78 78h188v10c0 37 30 68 68 68s68-31 68-68v-10h188c43 0 78-35 78-78v-168c0-8-7-15-16-15s-15 7-15 15v168c0 26-21 47-47 47-24 0-491 0-512 0-26 0-47-21-47-47v-703c0-26 21-47 47-47h512c8 0 15-7 15-16z m-308 844h74v10c0 20-17 37-37 37s-37-17-37-37z m217-74c0 8-7 15-16 15s-16-7-16-15c0-18-14-32-31-32h-234c-18 0-32 14-32 32 0 8-7 15-15 15s-16-7-16-15c0-35 28-63 63-63h234c35 0 63 28 63 63z m-280-565v-35c0-26-21-47-47-47h-35c-26 0-47 21-47 47v35c0 26 21 47 47 47h35c26 0 47-21 47-47z m-31 0c0 9-7 16-16 16h-35c-8 0-15-7-15-16v-35c0-9 7-16 15-16h35c9 0 16 7 16 16z m293-10h-53c-8 0-15-7-15-15s7-16 15-16h53c9 0 16 7 16 16s-7 15-16 15z m346 299v-371c0-34-28-62-63-62h-371c-34 0-62 28-62 62v371c0 35 28 63 62 63h371c35 0 63-28 63-63z m-32 0c0 18-14 32-31 32h-240v-95c0-9 7-16 16-16h80c8 0 15 7 15 16v50c0 8 7 15 16 15s16-7 16-15v-50c0-26-21-47-47-47h-80c-26 0-47 21-47 47v95h-100c-17 0-31-14-31-32v-371c0-17 14-31 31-31h371c17 0 31 14 31 31z" horiz-adv-x="1000" />

<glyph glyph-name="open" unicode="&#xe823;" d="M891 321v-331c0-43-35-78-78-78h-688c-43 0-78 35-78 78v331c0 8 7 15 16 15s15-7 15-15v-331c0-25 21-46 47-46h688c25 0 46 21 46 46v331c0 8 7 15 16 15s16-7 16-15z m-789 279c0-9 7-16 15-16 857 0 808-1 815 4 3 2 5 6 5 10 1 6 7-10-102 243-3 5-8 9-15 9h-703c-6 0-12-4-14-9l-102-235c-1-4-1 3-1-103 0-71 58-129 129-129 49 0 91 27 113 68 49-90 178-90 227 0 49-90 177-90 226 0 22-41 65-68 114-68 71 0 129 58 129 129 0 9-7 16-16 16s-16-7-16-16c0-54-43-98-97-98s-98 44-98 98c0 9-7 16-16 16s-15-7-15-16c0-54-44-98-98-98s-98 44-98 98c0 9-7 16-15 16s-16-7-16-16c0-54-44-98-97-98-53 0-98 43-98 99 0 8-7 15-16 15s-15-7-15-15c0-56-45-99-98-99-54 0-98 44-98 98v94l97 222h682l88-203h-781c-8 0-15-7-15-16z m62-387c0 41 33 74 74 74s73-33 73-74-33-73-73-73c-41 0-74 33-74 73z m31 0c0-23 19-42 43-42s42 19 42 42-19 42-42 42-43-19-43-42z m178-73c-9 0-16 7-16 15v116c0 9 7 16 16 16h38c30 0 54-25 54-55s-24-54-54-54h-23v-23c0-8-7-15-15-15z m15 70h23c13 0 23 10 23 22s-10 23-23 23h-23z m216 45c8 0 15 7 15 16s-7 16-15 16h-77c-9 0-16-7-16-16v-116c0-8 7-15 16-15h77c8 0 15 7 15 15s-7 16-15 16h-62v27h38c9 0 16 7 16 15s-7 16-16 16h-38v26h62z m92-100v64l49-72c8-13 29-7 29 8v116c0 9-7 16-16 16s-16-7-16-16v-64l-48 73c-9 13-29 6-29-9v-116c0-8 7-15 16-15s15 7 15 15z m-516-121h578c9 0 16 7 16 15s-7 16-16 16h-578c-9 0-16-7-16-16s7-15 16-15z" horiz-adv-x="1000" />

<glyph glyph-name="trolley" unicode="&#xe824;" d="M753 43c6-6 6-16 0-22-6-6-16-6-22 0l-46 46h-175c-8 0-15 7-15 15s7 16 15 16h181c5 0 9-2 12-4z m-255 227c0 9-7 16-16 16h-52c-9 0-16-7-16-16s7-16 16-16h52c9 0 16 7 16 16z m268 357h-371c-35 0-63-28-63-62v-248c0-9 7-16 16-16s15 7 15 16v248c0 17 14 31 32 31h99v-94c0-26 21-47 47-47h80c26 0 47 21 47 47v49c0 9-7 16-16 16s-15-7-15-16v-49c0-9-7-16-16-16h-80c-9 0-16 7-16 16v94h241c17 0 31-14 31-31v-371c0-17-14-31-31-31h-266c-9 0-16-7-16-16s7-16 16-16h266c34 0 62 28 62 63v371c0 34-28 62-62 62z m-317-545c0-93-76-170-170-170s-170 77-170 170c0 89 68 162 155 170v457c0 61-49 110-110 110-8 0-15 7-15 15s7 16 15 16c78 0 141-63 141-141v-457c86-8 154-81 154-170z m-31 0c0 77-62 139-139 139s-138-62-138-139 62-138 138-138 139 62 139 138z m-139 90c-49 0-89-40-89-90s40-89 89-89c9 0 16 7 16 15s-7 16-16 16c-32 0-58 26-58 58s26 59 58 59 59-26 59-59c0-8 7-15 16-15s15 7 15 15c0 50-40 90-90 90z" horiz-adv-x="1000" />

<glyph glyph-name="delivery-box-1" unicode="&#xe825;" d="M158 280v-294c0-28-22-51-50-51h-36c-8 0-15 7-15 16s7 16 15 16h36c11 0 19 8 19 19v317c0 11-8 19-19 19h-58c-10 0-19-8-19-19v-295c0-9-7-16-15-16s-16 7-16 16v295c0 28 23 51 50 51h58c24 0 44-17 49-39l120 69c23 13 49 20 75 20h142c46 0 90-35 90-94 0-40-25-74-63-86l-179-57c-8-3-17 2-19 10-3 8 2 17 10 20l178 56c25 8 42 31 42 57v4c0 32-27 59-59 59h-142c-21 0-41-5-59-16z m651 46l-152-119c-8-6-19-10-29-10h-87c-9 0-16-7-16-15s7-16 16-16h87c17 0 35 6 49 17l151 118c34 27 84-1 79-44-2-14-9-25-20-33l-260-194c-20-14-43-22-67-22h-343c-9 0-16-7-16-16s7-16 16-16h343c31 0 61 10 85 29l261 194c18 13 29 32 32 53 9 71-73 118-129 74z m-666 67c8 0 15 7 15 15v352c0 19 16 35 35 35h176v-150c0-32 34-52 63-37l53 28c3 2 7 2 11 0l53-28c28-15 62 5 62 37v101c0 9-7 16-15 16s-16-7-16-16v-101c0-8-9-14-16-10l-54 29c-12 6-27 6-40 0l-53-29c-7-4-17 2-17 10v150h386c19 0 34-16 34-35v-352c0-8 7-15 16-15s16 7 16 15v352c0 37-30 66-66 66h-593c-36 0-66-29-66-66v-352c0-8 7-15 16-15z" horiz-adv-x="1000" />

<glyph glyph-name="box-5" unicode="&#xe826;" d="M859 850h-781c-43 0-78-35-78-78v-781c0-44 35-79 78-79h781c44 0 79 35 79 79v781c0 43-35 78-79 78z m47-859c0-26-21-47-47-47h-781c-26 0-47 21-47 47v781c0 26 21 47 47 47h238v-201c0-38 41-63 75-45l70 37c6 3 12 3 18 0l70-37c34-18 75 7 75 45v144c0 9-7 16-16 16s-15-7-15-16v-144c0-15-16-24-29-17l-70 37c-15 8-33 8-48 0l-70-37c-13-7-28 2-28 17v201h511c26 0 47-21 47-47z m-64 349c1-58-19-113-58-155-6-6-16-7-22-1-6 6-7 16-1 22 30 32 47 73 49 118h-103v-32h20c9 0 16-7 16-15v-41c0-8-7-15-16-15s-15 7-15 15v25h-21c-8 0-15 7-15 16v47h-103c1-24 7-54 24-84 38-66 96-79 104-86 2-1 3-3 4-4 3-5 2 1 2-114h56c9 0 16-7 16-15s-7-16-16-16h-143c-9 0-16 7-16 16s7 15 16 15h56v95c-86 37-137 119-135 209 0 8 7 15 16 15h269c9 0 16-7 16-15z m-690-169c0 9 7 16 16 16h128c8 0 15-7 15-16s-7-15-15-15h-128c-9 0-16 7-16 15z m158-95c6-10-2-23-14-23-16 0-22 22-7 30 7 4 17 1 21-7z m-57-7c0-9-7-16-15-16h-70c-9 0-16 7-16 16s7 15 16 15h70c8 0 15-7 15-15z" horiz-adv-x="1000" />

<glyph glyph-name="coupon" unicode="&#xe827;" d="M653 464c6-6 6-16 0-22l-153-153c-3-3-7-5-11-5-14 0-21 17-11 27l153 153c6 6 16 6 22 0z m-6-128c17 0 31-14 31-31s-14-31-31-31-31 14-31 31 14 31 31 31z m0-31c0-1 0-1 0 0 0 0 0 0 0 0z m-122 153c0-17-14-31-31-31s-31 14-31 31 14 31 31 31 31-14 31-31z m-31 0c-1 0-1-1 0-1 0 0 0 1 0 1z m381 232h-497c-9 0-16-7-16-16s7-15 16-15h497c17 0 31-14 31-32v-492c0-17-14-31-31-31h-590v33c0 9-7 16-15 16s-16-7-16-16v-33h-191c-18 0-32 14-32 31v86c0 12 6 22 16 28 106 56 106 208 0 265-10 5-16 16-16 27v86c0 18 14 32 32 32h191v-33c0-9 7-16 16-16s15 7 15 16v48c0 9-7 16-15 16h-207c-35 0-63-28-63-63v-86c0-23 13-44 33-55 84-44 84-165 0-210-20-11-33-32-33-55v-86c0-34 28-62 63-62h812c35 0 63 28 63 62v492c0 35-28 63-63 63z m-590-182c0 8-7 15-15 15s-16-7-16-15v-62c0-8 7-15 16-15s15 7 15 15z m-15-176c-9 0-16-7-16-16v-61c0-9 7-16 16-16s15 7 15 16v61c0 9-7 16-15 16z" horiz-adv-x="1000" />

<glyph glyph-name="worldwide-shipping" unicode="&#xe828;" d="M938 381c0 214-174 387-387 387-159 0-297-96-356-236h-8c-28 0-51-23-51-51v-244c0-28 23-52 51-52h244c28 0 51 24 51 52v244c0 28-23 51-51 51h-43c40 99 110 162 147 190v-682c-25 20-66 56-102 108-5 7-15 9-22 4-7-5-9-15-4-22 31-44 65-78 92-100-79 11-152 49-208 108-5 7-15 7-22 1-6-6-6-16 0-22 72-77 173-123 282-123 213 0 387 174 387 387z m-32 16h-132c-4 130-65 225-117 283-5 6-15 7-22 1-6-6-7-15-1-22 48-54 104-142 109-262h-136c-8 0-15-7-15-16s7-15 15-15h136c-5-133-76-248-177-326v696c184-8 332-155 340-339z m-455 84v-244c0-11-9-20-20-20h-244c-11 0-20 9-20 20v244c0 11 9 20 20 20h244c11 0 20-9 20-20z m-97 51h-125c51 109 152 184 270 201-44-37-108-104-145-201z m249-502c61 51 165 164 171 336h132c-8-172-137-312-303-336z m-373 389c0 8 7 15 16 15h126c9 0 16-7 16-15s-7-16-16-16h-126c-9 0-16 7-16 16z m-134 8c9 0 16-7 16-16s-7-15-16-15h-13c-8 0-15 7-15 15s7 16 15 16z m-13-135h-35c-9 0-16 7-16 16s7 16 16 16h35c9 0 16-7 16-16s-7-16-16-16z m8 209h-75c-9 0-16 7-16 16s7 15 16 15h75c8 0 15-7 15-15s-7-16-15-16z m31-298c0-9-7-16-15-16h-11c-9 0-16 7-16 16s7 15 16 15h11c8 0 15-7 15-15z" horiz-adv-x="1000" />

<glyph glyph-name="screen" unicode="&#xe829;" d="M875 805h-812c-35 0-63-28-63-62v-563c0-34 28-62 63-62h335v-61c0-9 7-16 16-16s16 7 16 16v57h78v-57c0-9 7-16 15-16s16 7 16 16v61h336c35 0 63 28 63 62v563c0 34-28 62-63 62z m31-625c0-17-14-31-31-31h-812c-18 0-32 14-32 31v563c0 17 14 31 32 31h812c17 0 31-14 31-31z m-204-212c-2-8-11-12-19-10-131 41-298 41-428 0-9-2-17 2-20 10-2 9 2 17 10 20 137 43 310 43 447 0 8-3 13-11 10-20z m-70 546c-3 25-24 44-50 44h-19v36c0 52-43 95-95 95s-95-43-95-95v-36h-19c-26 0-47-19-50-44l-24-224c-3-29 20-55 49-55h278c29 0 52 26 49 55z m-25-247h-278c-11 0-19 9-18 20l24 223c1 10 9 17 19 17h19v-31c0-9 7-16 16-16s15 7 15 16v98c0 35 29 64 64 64 35 0 64-29 64-64v-36h-81c-9 0-16-7-16-16s7-15 16-15h81v-31c0-9 7-16 15-16s16 7 16 16v31h19c10 0 18-7 19-17l24-223c1-11-7-20-18-20z" horiz-adv-x="1000" />

<glyph glyph-name="invoices" unicode="&#xe82a;" d="M420 530c0-113 92-205 205-205s205 92 205 205-92 205-205 205-205-92-205-205z m379 0c0-96-78-174-174-174s-174 78-174 174 78 174 174 174 174-78 174-174z m-174 105c9 0 16-7 16-15v-7c18-6 31-24 31-44 0-9-7-16-16-16s-15 7-15 16c0 8-7 15-16 15s-16-7-16-15v-7c0-6 5-12 11-14l19-6c20-6 33-24 33-45v-6c0-23-16-42-37-46v-5c0-9-7-16-16-16s-15 7-15 16v9c-16 8-26 24-26 42 0 8 7 15 16 15s15-7 15-15c0-9 7-16 16-16s16 7 16 16v6c0 7-5 13-11 15l-19 6c-20 6-33 24-33 44v7c0 20 13 38 31 44v7c0 8 7 15 16 15z m254-414v-199c0-60-49-110-109-110h-602c-60 0-109 50-109 110v766c0 34 28 62 62 62h508c34 0 62-28 62-62 0-9-7-16-15-16s-16 7-16 16c0 17-14 31-31 31h-508c-17 0-31-14-31-31v-766c0-43 35-78 78-78h525c-20 20-33 47-33 78v244c0 9 7 16 16 16s15-7 15-16v-244c0-43 36-78 79-78s78 35 78 78v199c0 17-14 31-32 31h-66c-9 0-16 7-16 16s7 16 16 16h66c35 0 63-28 63-63z m-684 209c0 9 7 16 16 16h133c8 0 15-7 15-16s-7-15-15-15h-133c-9 0-16 6-16 15z m0 176c0 9 7 16 16 16h133c8 0 15-7 15-16s-7-16-15-16h-133c-9 0-16 7-16 16z m360-352c0-8-7-15-16-15h-328c-9 0-16 7-16 15s7 16 16 16h328c9 0 16-7 16-16z m0-164c0-8-7-15-16-15h-328c-9 0-16 7-16 15s7 16 16 16h328c9 0 16-7 16-16z" horiz-adv-x="1000" />

<glyph glyph-name="cash-register" unicode="&#xe82b;" d="M860 161h-752l34 393c1 16 15 28 31 28h25v-64h-19c-9 0-16-7-16-16s7-15 16-15h289c8 0 15 7 15 15s-7 16-15 16h-20v254c0 12-13 19-23 13l-47-26-47 26c-5 3-11 3-15 0l-47-26-47 26c-11 6-24-1-24-13v-158h-25c-33 0-60-25-62-57l-34-396c-42-2-76-36-76-79v-93c0-43 35-79 78-79h781c43 0 79 36 79 79v93c0 44-36 79-79 79z m-630 584l31-18c5-3 11-3 15 0l47 27 47-27c5-3 11-3 16 0l31 18v-227h-187z m677-756c0-26-21-47-47-47h-781c-26 0-47 21-47 47v93c0 26 21 47 47 47h781c26 0 47-21 47-47z m-422 609c0 9 7 16 16 16h104v19c0 9 7 16 15 16s16-7 16-16v-19h82v19c0 9 7 16 15 16s16-7 16-16v-19h18c32 0 59-25 62-57l28-323c0-9-6-17-15-17-8-1-16 5-16 14l-28 323c-2 16-15 28-31 28h-266c-9 0-16 7-16 16z m94 72h195c35 0 63 28 63 63v55c0 34-28 62-63 62h-195c-34 0-62-28-62-62v-55c0-35 28-63 62-63z m-31 118c0 17 14 31 31 31h195c18 0 32-14 32-31v-55c0-17-14-31-32-31h-195c-17 0-31 14-31 31z m-303-377c-26 0-47-21-47-47v-71c0-25 21-46 47-46h156c26 0 47 21 47 46v71c0 26-21 47-47 47z m172-47v-71c0-8-7-15-16-15h-156c-8 0-15 7-15 15v71c0 8 7 15 15 15h156c9 0 16-7 16-15z m147 41c0-9-7-16-16-16h-18c-8 0-15 7-15 16s7 15 15 15h18c9 0 16-7 16-15z m97 0c0-9-7-16-15-16h-18c-9 0-16 7-16 16s7 15 16 15h18c8 0 15-7 15-15z m98 0c0-9-7-16-16-16h-17c-9 0-16 7-16 16s7 15 16 15h17c9 0 16-7 16-15z m-195-117c0-9-7-16-16-16h-18c-8 0-15 7-15 16s7 15 15 15h18c9 0 16-7 16-15z m97 0c0-9-7-16-15-16h-18c-9 0-16 7-16 16s7 15 16 15h18c8 0 15-7 15-15z m98 0c0-9-7-16-16-16h-17c-9 0-16 7-16 16s7 15 16 15h17c9 0 16-7 16-15z" horiz-adv-x="1000" />

<glyph glyph-name="newsletter" unicode="&#xe82c;" d="M344 725c-34 0-62-28-62-62v-250c0-35 28-63 62-63h250c35 0 63 28 63 63v250c0 34-28 62-63 62z m282-62v-250c0-18-14-32-32-32h-250c-17 0-31 14-31 32v250c0 17 14 31 31 31h250c18 0 32-14 32-31z m-81-39c0-8-7-15-15-15h-120c-8 0-15 7-15 15s7 16 15 16h120c8 0 15-7 15-16z m315-201v-431c0-45-36-81-80-81h-621c-44 0-80 36-80 81v432c0 8 7 15 15 15s16-7 16-15v-81l332-161c17-8 37-8 54 0l233 113c8 4 17 1 21-7 4-8 1-17-7-21l-233-113c-26-13-56-13-81 0l-319 155v-317c0-27 22-49 49-49h621c27 0 49 22 49 49v431c0 9 7 16 15 16s16-7 16-16z m-695-42v407c0 34 28 62 62 62h484c35 0 63-28 63-62v-407c0-8-7-15-16-15s-15 7-15 15v407c0 17-14 31-32 31h-484c-17 0-31-14-31-31v-407c0-8-7-15-16-15s-15 7-15 15z m163-239c7-6 7-16 0-22l-97-98c-3-3-7-4-11-4-14 0-21 16-11 26l97 98c6 6 16 6 22 0z m304 0l98-98c10-10 3-26-11-26-4 0-8 1-11 4l-98 98c-6 6-6 16 0 22 6 6 16 6 22 0z" horiz-adv-x="1000" />

<glyph glyph-name="smartphone-1" unicode="&#xe82d;" d="M586 215c26 0 47 21 47 47v98c0 26-21 47-47 47h-23l-83 81c-6 6-16 6-22 0l-83-81h-23c-26 0-47-21-47-47v-98c0-26 21-47 47-47z m-117 240l49-48h-99z m-133-193v98c0 8 7 15 16 15h234c9 0 16-7 16-15v-98c0-8-7-15-16-15h-234c-9 0-16 7-16 15z m426 264v-535c0-44-35-79-78-79h-430c-43 0-78 35-78 79v535c0 8 7 15 15 15s16-7 16-15v-535c0-26 21-47 47-47h430c25 0 47 21 47 47v58h-448c-8 0-15 7-15 16s7 16 15 16h448v445c0 8 7 15 15 15s16-7 16-15z m0 246v-122c0-47-38-85-85-85-29 0-54 14-70 36-33-48-104-48-138 0-16-22-41-36-70-36-46 0-84 38-84 85 0 8 6 15 15 15s16-7 16-15c0-30 24-54 53-54s54 24 54 54c0 8 7 15 16 15s15-7 15-15c0-30 25-54 54-54s54 24 54 54c0 8 7 15 15 15s16-7 16-15c0-30 24-54 54-54s54 24 54 54v122c0 26-22 47-47 47h-430c-26 0-47-21-47-47v-122c0-30 24-54 54-54 8 0 15-7 15-16s-7-15-15-15c-47 0-85 38-85 85v122c0 43 35 78 78 78h430c43 0 78-35 78-78z m-313-787c-8 0-15 7-15 15s7 16 15 16h39c9 0 16-7 16-16s-7-15-16-15z" horiz-adv-x="1000" />

<glyph glyph-name="box" unicode="&#xe82e;" d="M938 731v-80c0-43-35-79-79-79h-30c-8 0-15 7-15 16s7 16 15 16h30c26 0 47 21 47 47v80c0 26-21 47-47 47h-781c-26 0-47-21-47-47v-80c0-26 21-47 47-47h651c8 0 15-7 15-16s-7-16-15-16h-631v-541c0-25 21-47 47-47h648c26 0 47 22 47 47v473c0 9 7 16 16 16s15-7 15-16v-473c0-43-35-78-78-78h-648c-43 0-79 35-79 78v542c-37 6-66 39-66 78v80c0 43 35 78 78 78h781c44 0 79-35 79-78z m-579-387c-34 0-62 28-62 63v19c0 35 28 63 62 63h219c35 0 63-28 63-63v-19c0-35-28-63-63-63z m0 31h219c17 0 31 14 31 32v19c0 17-14 31-31 31h-219c-17 0-31-14-31-31v-19c0-18 14-32 31-32z m-46-199h-110c-8 0-15-7-15-15s7-16 15-16h110c8 0 15 7 15 16s-7 15-15 15z m0-78h-110c-8 0-15-7-15-16s7-15 15-15h110c8 0 15 7 15 15s-7 16-15 16z" horiz-adv-x="1000" />

<glyph glyph-name="money" unicode="&#xe82f;" d="M732 402c-113 0-205-92-205-205s92-205 205-205 206 92 206 205-92 205-206 205z m0-379c-95 0-173 78-173 174s78 174 173 174 174-78 174-174-78-174-174-174z m-15 213v-7c0-6 4-12 11-14l18-6c20-6 33-24 33-45v-6c0-23-16-42-37-46v-5c0-9-7-16-15-16s-16 7-16 16v9c-15 8-25 24-25 42 0 8 7 15 15 15s16-7 16-15c0-9 7-16 15-16s16 7 16 16v6c0 7-4 13-11 15l-19 6c-19 6-32 24-32 44v7c0 20 13 38 31 44v7c0 8 7 15 15 15s16-7 16-15v-7c18-6 31-24 31-44 0-9-7-16-15-16s-16 7-16 16c0 8-7 15-16 15s-15-7-15-15z m-242-34c0-9-7-16-16-16h-396c-35 0-63 28-63 63v459c0 35 28 63 63 63h755c35 0 63-28 63-63v-272c0-9-7-16-16-16s-15 7-15 16v272c0 18-14 32-32 32h-755c-18 0-32-14-32-32v-459c0-18 14-32 32-32h396c9 0 16-7 16-15z m-181 277c0-81 66-147 146-147s147 66 147 147-66 146-147 146-146-66-146-146z m262 0c0-64-52-116-116-116s-115 52-115 116c0 63 52 115 115 115s116-52 116-115z m-352 15c9 0 16-7 16-15s-7-16-16-16h-62c-9 0-16 7-16 16s7 15 16 15z m535 0c9 0 16-7 16-15s-7-16-16-16h-63c-8 0-15 7-15 16s7 15 15 15z" horiz-adv-x="1000" />

<glyph glyph-name="online-tracking" unicode="&#xe830;" d="M269 178h-111c-8 0-15 7-15 15s7 16 15 16h111c9 0 16-7 16-16s-7-15-16-15z m8-88c8 5 10 14 6 22-4 7-13 10-21 6-8-4-11-14-7-21 5-8 14-11 22-7z m-119 30c-8 0-15-7-15-16s7-16 15-16h51c8 0 15 7 15 16s-7 16-15 16z m662-125h-742c-26 0-47 21-47 47v679c0 26 21 47 47 47h203v-176c0-36 38-58 69-42l62 33c4 3 10 3 14 0l62-33c32-16 69 6 69 42v117c0 9-7 16-15 16s-16-7-16-16v-117c0-12-12-20-23-14l-62 33c-14 7-30 7-44 0l-62-33c-10-6-23 2-23 14v176h446c26 0 47-21 47-47v-345c0-9 7-16 15-16s16 7 16 16v345c0 43-35 78-78 78h-680c-43 0-78-35-78-78v-679c0-44 35-79 78-79h742c9 0 16 7 16 16s-7 16-16 16z m99 146l-27-27c-109-108-285-108-394 0l-26 27c-25 25-25 65 0 90l26 26c109 109 285 109 394 0l27-26c24-25 24-65 0-90z m-23 68l-26 26c-97 97-253 97-350 0l-26-26c-13-13-13-33 0-46l26-27c97-96 253-96 350 0l26 27c13 13 13 33 0 46z m-103-23c0-54-44-98-98-98s-98 44-98 98 44 98 98 98 98-44 98-98z m-31 0c0 37-30 66-67 66s-66-29-66-66 29-67 66-67 67 30 67 67z" horiz-adv-x="1000" />

<glyph glyph-name="delivery-box" unicode="&#xe831;" d="M469 850c-172 0-312-140-312-312 0-6 1-10 5-13l266-238h-142c-35 0-63-28-63-63v-250c0-34 28-63 63-63h367c34 0 62 29 62 63v250c0 35-28 63-62 63h-78c-9 0-16-7-16-16s7-16 16-16h78c17 0 31-14 31-31v-250c0-17-14-31-31-31h-367c-18 0-32 14-32 31v250c0 17 14 31 32 31h83v-101c0-9 7-16 16-16h170c9 0 16 7 16 16v54c0 9-7 16-16 16s-15-7-15-16v-39h-140v86c74 0 70 0 71 0 7 1-8-10 229 201 6 6 7 16 1 22-6 7-15 7-22 2l-194-174v168c0 9-7 16-16 16s-15-7-15-16v-168l-242 216h554c9 0 16 7 16 16 0 172-140 312-313 312z m-281-297c9 148 131 266 281 266s273-118 281-266z" horiz-adv-x="1000" />

<glyph glyph-name="schedule" unicode="&#xe832;" d="M938 364v-371c0-35-28-63-63-63h-371c-35 0-63 28-63 63v371c0 34 28 62 63 62h309v149h-682c-9 0-16 7-16 16s7 16 16 16h682v93c0 26-21 47-47 47h-133v-40c0-8-7-15-16-15s-15 7-15 15v40h-164v-40c0-8-7-15-16-15s-16 7-16 15v40h-164v-40c0-8-7-15-15-15s-16 7-16 15v40h-133c-26 0-47-21-47-47v-571c0-25 21-47 47-47h286c9 0 16-7 16-15s-7-16-16-16h-286c-43 0-78 35-78 78v571c0 43 35 78 78 78h133v39c0 8 7 15 16 15s15-7 15-15v-39h164v39c0 8 7 15 16 15s16-7 16-15v-39h164v39c0 8 7 15 15 15s16-7 16-15v-39h133c43 0 78-35 78-78v-274h31c35 0 63-28 63-62z m-32 0c0 17-14 31-31 31h-240v-95c0-8 7-15 15-15h81c8 0 15 7 15 15v50c0 9 7 16 16 16s15-7 15-16v-50c0-26-21-47-46-47h-81c-25 0-46 21-46 47v95h-100c-17 0-31-14-31-31v-371c0-18 14-32 31-32h371c17 0 31 14 31 32z m-611 17c0-8-7-15-16-15h-105c-9 0-16 7-16 15v106c0 8 7 15 16 15h105c9 0 16-7 16-15z m-31 90h-74v-74h74z m31-199v-106c0-8-7-15-16-15h-105c-9 0-16 7-16 15v106c0 9 7 16 16 16h105c9 0 16-7 16-16z m-31-16h-74v-74h74z" horiz-adv-x="1000" />

<glyph glyph-name="smartphone" unicode="&#xe833;" d="M684 850h-430c-43 0-78-35-78-78v-781c0-44 35-79 78-79h430c43 0 78 35 78 79v781c0 43-35 78-78 78z m0-906h-430c-26 0-47 21-47 47v781c0 26 21 47 47 47h430c25 0 47-21 47-47v-691h-448c-8 0-15-7-15-16s7-16 15-16h448v-58c0-26-22-47-47-47z m-180 56c0-8-7-15-16-15h-39c-8 0-15 7-15 15s7 16 15 16h39c9 0 16-7 16-16z m-154 233h238c27 0 48 23 45 50l-21 192c-3 22-22 40-45 40h-14v29c0 46-38 83-84 83s-84-37-84-83v-29h-14c-23 0-43-18-45-40l-21-192c-3-27 18-50 45-50z m-14 46l21 192c1 7 7 12 14 12h14v-24c0-9 7-16 16-16s15 7 15 16v85c0 29 24 52 53 52s52-23 52-52v-29h-67c-9 0-16-7-16-16s7-16 16-16h67v-24c0-9 7-16 16-16s16 7 16 16v24h14c7 0 13-5 14-12l21-192c0-8-6-15-14-15h-238c-9 0-15 7-14 15z" horiz-adv-x="1000" />

<glyph glyph-name="box-2" unicode="&#xe834;" d="M887 772v-680c0-43-35-78-78-78h-73c-8 0-15 7-15 16s7 15 15 15h73c26 0 47 21 47 47v680c0 26-21 47-47 47h-446v-177c0-11 13-19 23-13l62 32c14 8 30 8 44 0l62-32c10-6 23 2 23 13v118c0 8 7 15 16 15s15-7 15-15v-118c0-35-37-58-69-41l-62 33c-4 2-10 2-14 0l-62-33c-32-17-69 6-69 41v177h-203c-26 0-47-21-47-47v-680c0-26 21-47 47-47h72c9 0 16-7 16-15s-7-16-16-16h-72c-43 0-78 35-78 78v680c0 43 35 78 78 78h680c43 0 78-35 78-78z m-610-528c0 8-7 15-15 15h-53c-8 0-15-7-15-15s7-16 15-16h53c8 0 15 7 15 16z m-37-74h-31c-8 0-15-7-15-15s7-16 15-16h31c9 0 16 7 16 16s-7 15-16 15z m438-162c11-49-25-96-75-96h-264c-50 0-87 47-75 96l47 194c9 35 39 59 75 59h22c-9 41 22 79 63 79 21 0 41-10 53-28 5-7 3-17-4-22s-17-2-22 5c-6 9-16 14-27 14-25 0-41-26-30-48h115c35 0 66-24 75-59z m-31-8l-47 195c-5 20-23 35-44 35-21 0-151 0-170 0-21 0-39-15-44-35l-48-195c-7-29 15-57 45-57h264c29 0 51 28 44 57z" horiz-adv-x="1000" />

<glyph glyph-name="exchange" unicode="&#xe835;" d="M475-39l22-22c10-10 3-27-11-27-4 0-8 2-11 5l-48 49c-7 6-7 16 0 22l48 49c6 6 16 6 22 0 7-6 7-16 0-22l-22-22c212 3 382 176 382 388 0 88-28 171-82 240-5 6-4 16 3 21 7 6 16 5 22-2 58-75 89-164 89-259 0-230-185-416-414-420z m274 696c14 0 21 18 10 27-7 7-16 6-22 0-10-10-2-27 12-27z m-366-367h-47c-9 0-16-7-16-16s7-16 16-16h47c8 0 15 7 15 16s-7 16-15 16z m260-114c0 9-7 16-16 16h-316c-18 0-32 14-32 31v317c0 17 14 31 32 31h80v-110c0-11 12-19 23-13l55 29 55-29c10-6 23 2 23 13v55c0 9-7 16-16 16s-15-7-15-16v-29l-40 21c-4 3-10 3-15 0l-39-21v84h205c17 0 31-14 31-31v-278c0-8 7-15 16-15s16 7 16 15v278c0 34-29 62-63 62h-316c-35 0-63-28-63-62v-317c0-34 28-62 63-62h316c9 0 16 7 16 15z m-563 205c0 212 171 385 382 389l-22-22c-10-10-3-27 11-27 4 0 8 2 11 5l49 49c6 6 6 16 0 22l-49 48c-6 7-16 7-22 0-6-6-6-16 0-22l22-22c-229-3-413-190-413-420 0-94 31-184 89-258 5-7 15-8 22-3 7 5 8 15 2 22-53 69-82 152-82 239z m98-281c-6-6-7-15 1-22 6-6 16-6 22 0 6 7 5 16-1 22-7 7-17 6-22 0z" horiz-adv-x="1000" />

<glyph glyph-name="support" unicode="&#xe836;" d="M768 160c36-36 36-96 0-132l-23-23c-6-6-16-6-22 0s-6 16 0 22l23 23c24 24 24 64 0 88l-87 87c-25 24-64 24-89 0l-36-36c-30-30-77-30-107 0l-161 161c-29 29-29 77 0 107l36 36c25 24 25 64 0 88l-87 87c-24 25-64 25-88 0l-32-31c-85-86-85-224 0-310l310-309c61-62 153-81 234-49 8 3 17-1 20-9 3-8-1-17-9-20-92-37-197-14-267 56l-310 309c-97 98-97 256 0 354l32 31c37 37 96 37 133 0l87-87c36-36 36-96 0-132l-37-36c-17-18-17-46 0-63l161-161c18-17 46-17 63 0l36 36c37 37 96 37 133 0z m91 681h-391c-43 0-78-35-78-79v-156c0-43 35-78 78-78h16v-51c0-8 7-15 15-15 6 0-1-4 120 68 7 5 9 14 5 22s-14 10-21 5l-88-52v39c0 8-7 15-16 15h-31c-26 0-47 21-47 47v156c0 26 21 47 47 47h391c26 0 47-21 47-47v-156c0-26-21-47-47-47h-163c-9 0-16-7-16-15s7-16 16-16h163c43 0 78 35 78 78v156c0 44-35 79-78 79z m-346-172c24 0 43 19 43 43s-19 43-43 43h-27c-9 0-16-7-16-16s7-16 16-16h27c7 0 12-5 12-11s-5-12-12-12c-24 0-43-19-43-43v-27c0-9 7-16 16-16h55c8 0 15 7 15 16s-7 15-15 15h-40v12c0 6 6 12 12 12z m137-55c9 0 16 7 16 16 0 13 0 96 0 109 0 9-7 16-16 16s-16-7-16-16v-39h-23v39c0 9-7 16-16 16s-15-7-15-16v-55c0-8 7-15 15-15h39v-39c0-9 7-16 16-16z m153 0c7 0 13 4 15 11l38 109c3 10-4 21-15 21h-54c-9 0-16-7-16-16s7-16 16-16h32l-31-88c-3-10 5-21 15-21z m-84 12l28 109c2 9-3 17-12 19-8 2-17-3-19-11l-27-110c-2-8 3-16 11-18 9-3 17 3 19 11z" horiz-adv-x="1000" />

<glyph glyph-name="wallet" unicode="&#xe837;" d="M885 387v187c0 43-35 78-78 78h-27l6 20c10 33-9 68-43 78l-177 51c-8 2-17-3-19-11-3-8 2-17 10-19l112-33c-14-26-14-58-1-86h-326v123c0 8-7 15-16 15s-15-7-15-15v-123h-53v123c0 8-7 15-16 15s-15-7-15-15v-123h-69v135c0 17 14 31 32 31h263c17 0 31-14 31-31v-86c0-9 7-16 16-16s16 7 16 16v86c0 34-28 62-63 62h-263c-35 0-63-28-63-62v-135h-49c-43 0-78-35-78-78v-582c0-44 35-79 78-79h729c43 0 78 35 78 79v114c0 9-7 16-16 16s-15-7-15-16v-114c0-26-21-47-47-47h-729c-26 0-47 21-47 47v582c0 26 21 47 47 47h729c26 0 47-21 47-47v-186h-129c-35 0-63-28-63-62v-86c0-35 28-63 63-63h150c34 0 63 28 63 63v86c0 31-23 57-53 61z m-185 343l35-10c16-5 26-23 21-39l-8-29h-42c-20 22-22 54-6 78z m206-490c0-18-14-32-31-32h-150c-18 0-32 14-32 32v86c0 17 14 31 32 31h150c17 0 31-14 31-31z m-123 43c0-9-7-16-15-16h-24c-8 0-15 7-15 16s7 15 15 15h24c8 0 15-7 15-15z" horiz-adv-x="1000" />

<glyph glyph-name="box-3" unicode="&#xe838;" d="M823 278c6-6 6-16 0-22l-82-82c-6-6-16-6-22 0l-38 38c-7 6-7 16 0 22 6 6 15 6 22 0l27-27 71 71c6 7 16 7 22 0z m-573-69h-92c-8 0-15-7-15-16s7-16 15-16h92c8 0 15 7 15 16s-7 16-15 16z m0-90h-92c-8 0-15-7-15-15s7-16 15-16h92c8 0 15 7 15 16s-7 15-15 15z m477-125h-649c-26 0-47 22-47 47v680c0 26 21 47 47 47h203v-176c0-36 38-58 69-42l62 33c4 3 10 3 14 0l62-33c32-16 69 6 69 42v117c0 9-7 16-15 16s-16-7-16-16v-117c0-12-12-20-23-14l-62 33c-14 7-30 7-44 0l-62-33c-10-6-23 2-23 14v176h446c26 0 47-21 47-47v-240c0-9 7-16 15-16s16 7 16 16v240c0 43-35 78-78 78h-680c-43 0-78-35-78-78v-680c0-43 35-78 78-78h649c8 0 15 7 15 16s-7 15-15 15z m190 231l19 49c3 7 1 15-5 19l-45 30-13 51c-2 7-9 12-16 12l-53-2-42 33c-5 5-14 5-19 1l-42-34-53 3c-8 1-14-4-16-11l-15-51-44-29c-7-4-9-12-7-19l19-50-19-49c-3-7-1-15 5-19l45-30 13-51c2-7 9-12 16-12l53 2 42-33c5-5 14-5 19 0l42 33 53-3c9-1 16 6 17 14 0 9-6 16-15 17l-59 3c-4 0-8-1-11-3l-36-29-36 29c-3 3-7 4-11 4l-47-2-11 45c-1 4-4 7-7 9l-39 26 17 43c2 4 2 8 0 12l-16 43 39 26c4 2 6 5 7 9l12 45 47-3c4 0 8 1 11 3l36 29 36-29c3-3 7-4 11-4l47 2 11-45c1-4 4-7 7-9l39-26-17-43c-2-4-2-8 0-12l16-44-20-13c-7-5-9-15-4-22 5-7 14-9 21-4l31 20c6 4 8 12 6 19z" horiz-adv-x="1000" />

<glyph glyph-name="heart-1" unicode="&#xe839;" d="M500-79q-14 0-25 10l-348 336q-5 5-15 15t-31 37-38 54-30 67-13 77q0 123 71 192t196 70q34 0 70-12t67-33 54-38 42-38q20 20 42 38t54 38 67 33 70 12q125 0 196-70t71-192q0-123-128-251l-347-335q-10-10-25-10z" horiz-adv-x="1000" />

<glyph glyph-name="heart-empty" unicode="&#xe83a;" d="M929 517q0 46-12 80t-31 55-46 33-52 18-55 4-62-14-62-36-48-40-34-34q-10-13-27-13t-27 13q-14 15-34 34t-48 40-62 36-62 14-55-4-52-18-46-33-31-55-12-80q0-93 105-198l324-312 324 312q105 105 105 198z m71 0q0-123-128-251l-347-335q-10-10-25-10t-25 10l-348 336q-5 5-15 15t-31 37-38 54-30 67-13 77q0 123 71 192t196 70q34 0 70-12t67-33 54-38 42-38q20 20 42 38t54 38 67 33 70 12q125 0 196-70t71-192z" horiz-adv-x="1000" />

<glyph glyph-name="star" unicode="&#xe83b;" d="M929 489q0-12-15-27l-202-197 48-279q0-4 0-12 0-11-6-19t-17-9q-10 0-22 7l-251 132-250-132q-12-7-23-7-11 0-17 9t-6 19q0 4 1 12l48 279-203 197q-14 15-14 27 0 21 31 26l280 40 126 254q11 23 27 23t28-23l125-254 280-40q32-5 32-26z" horiz-adv-x="928.6" />

<glyph glyph-name="star-empty" unicode="&#xe83c;" d="M635 290l170 166-235 34-106 213-105-213-236-34 171-166-41-235 211 111 211-111z m294 199q0-12-15-27l-202-197 48-279q0-4 0-12 0-28-23-28-10 0-22 7l-251 132-250-132q-12-7-23-7-11 0-17 9t-6 19q0 4 1 12l48 279-203 197q-14 15-14 27 0 21 31 26l280 40 126 254q11 23 27 23t28-23l125-254 280-40q32-5 32-26z" horiz-adv-x="928.6" />

<glyph glyph-name="star-half" unicode="&#xe83d;" d="M464 832v-747l-250-132q-12-7-23-7-11 0-17 9t-6 19q0 4 1 12l48 279-203 197q-14 15-14 27 0 21 31 26l280 40 126 254q11 23 27 23z" horiz-adv-x="500" />

<glyph glyph-name="mail" unicode="&#xe83e;" d="M929 11v428q-18-20-39-36-149-115-238-189-28-24-46-37t-48-28-57-13h-2q-26 0-57 13t-48 28-46 37q-88 74-238 189-21 16-39 36v-428q0-7 6-13t12-5h822q7 0 12 5t6 13z m0 586v14t-1 7-1 7-3 5-5 4-8 2h-822q-7 0-12-6t-6-12q0-94 83-159 107-84 223-176 4-3 20-17t25-21 25-17 28-16 24-5h2q11 0 24 5t28 16 25 17 25 21 20 17q116 92 224 176 30 24 56 65t26 73z m71 21v-607q0-37-26-63t-63-27h-822q-36 0-63 27t-26 63v607q0 37 26 63t63 26h822q37 0 63-26t26-63z" horiz-adv-x="1000" />

<glyph glyph-name="bookmark" unicode="&#xe83f;" d="M650 779q12 0 24-5 19-8 29-23t11-35v-719q0-19-11-35t-29-23q-10-4-24-4-27 0-47 18l-246 236-246-236q-20-19-46-19-13 0-25 5-18 7-29 23t-11 35v719q0 19 11 35t29 23q12 5 25 5h585z" horiz-adv-x="714.3" />

<glyph glyph-name="link" unicode="&#xe840;" d="M813 171q0 23-16 38l-116 116q-16 16-38 16-24 0-40-18 1-1 10-10t12-12 9-11 7-14 2-15q0-23-16-38t-38-16q-8 0-15 2t-14 7-11 9-12 12-10 10q-19-17-19-40 0-23 16-38l115-116q15-15 38-15 22 0 38 15l82 81q16 16 16 37z m-393 394q0 22-15 38l-115 115q-16 16-38 16-22 0-38-15l-82-82q-16-15-16-37 0-22 16-38l116-116q15-15 38-15 23 0 40 17-2 2-11 11t-12 12-8 10-7 14-2 16q0 22 15 38t38 15q9 0 16-2t14-7 11-8 12-12 10-11q18 17 18 41z m500-394q0-66-48-113l-82-81q-46-47-113-47-68 0-114 48l-115 115q-46 47-46 114 0 68 49 116l-49 49q-48-49-116-49-67 0-114 47l-116 116q-47 47-47 114t47 113l82 82q47 46 114 46 67 0 114-47l115-116q46-46 46-113 0-69-49-117l49-49q48 49 116 49 67 0 114-47l116-116q47-47 47-114z" horiz-adv-x="928.6" />

<glyph glyph-name="info-circled" unicode="&#xe841;" d="M571 82v89q0 8-5 13t-12 5h-54v286q0 8-5 13t-13 5h-178q-8 0-13-5t-5-13v-89q0-8 5-13t13-5h53v-179h-53q-8 0-13-5t-5-13v-89q0-8 5-13t13-5h250q7 0 12 5t5 13z m-71 500v89q0 8-5 13t-13 5h-107q-8 0-13-5t-5-13v-89q0-8 5-13t13-5h107q8 0 13 5t5 13z m357-232q0-117-57-215t-156-156-215-58-216 58-155 156-58 215 58 215 155 156 216 58 215-58 156-156 57-215z" horiz-adv-x="857.1" />

<glyph glyph-name="help-circled" unicode="&#xe842;" d="M500 82v107q0 8-5 13t-13 5h-107q-8 0-13-5t-5-13v-107q0-8 5-13t13-5h107q8 0 13 5t5 13z m143 375q0 49-31 91t-77 65-95 23q-136 0-207-119-9-13 4-24l74-55q4-4 10-4 9 0 14 7 30 38 48 51 19 14 48 14 27 0 48-15t21-33q0-21-11-34t-38-25q-35-15-65-48t-29-70v-20q0-8 5-13t13-5h107q8 0 13 5t5 13q0 10 12 27t30 28q18 10 28 16t25 19 25 27 16 34 7 45z m214-107q0-117-57-215t-156-156-215-58-216 58-155 156-58 215 58 215 155 156 216 58 215-58 156-156 57-215z" horiz-adv-x="857.1" />

<glyph glyph-name="phone" unicode="&#xe843;" d="M786 158q0-15-6-39t-12-38q-11-28-68-60-52-28-103-28-15 0-30 2t-32 7-26 8-31 11-28 10q-54 20-97 47-71 44-148 120t-120 148q-27 43-46 97-2 5-10 28t-12 31-8 26-7 32-2 29q0 52 29 104 31 57 59 68 14 6 38 12t39 6q8 0 12-2 10-3 30-42 6-11 16-31t20-35 17-30q2-2 10-14t12-20 4-16q0-11-16-27t-35-31-34-30-16-25q0-5 3-13t4-11 8-14 7-10q42-77 97-132t131-97q1 0 10-6t14-8 11-5 13-2q10 0 25 16t30 34 31 35 28 16q7 0 15-4t20-12 14-10q14-8 30-17t36-20 30-17q39-19 42-29 2-4 2-12z" horiz-adv-x="785.7" />

<glyph glyph-name="ok" unicode="&#xe844;" d="M0 339q0-35 24-60l246-239q24-25 60-25 36 0 60 25l505 495q25 24 25 59t-25 58q-25 25-60 25t-60-25l-445-435-185 181q-25 24-60 24t-61-24q-24-24-24-59z" horiz-adv-x="920.4" />

<glyph glyph-name="cancel" unicode="&#xe845;" d="M0 90q0 36 26 62l195 195-195 196q-26 25-26 61t26 61 61 25 61-25l196-196 195 196q25 25 61 25t61-25 25-61-25-61l-195-196 195-195q25-26 25-62t-25-61q-25-25-61-25t-61 25l-195 195-196-195q-25-25-61-25t-61 25q-26 26-26 61z" horiz-adv-x="686.5" />

<glyph glyph-name="dot-3" unicode="&#xe846;" d="M110 460q46 0 78-32t32-78q0-44-32-77t-78-33-78 33-32 77q0 46 32 78t78 32z m350 0q46 0 78-32t32-78q0-44-33-77t-77-33-77 33-33 77q0 46 32 78t78 32z m350 0q46 0 78-32t32-78q0-44-32-77t-78-33-78 33-32 77q0 46 32 78t78 32z" horiz-adv-x="920" />

<glyph glyph-name="down-dir" unicode="&#xe847;" d="M571 457q0-14-10-25l-250-250q-11-11-25-11t-25 11l-250 250q-11 11-11 25t11 25 25 11h500q14 0 25-11t10-25z" horiz-adv-x="571.4" />

<glyph glyph-name="up-dir" unicode="&#xe848;" d="M571 171q0-14-10-25t-25-10h-500q-15 0-25 10t-11 25 11 26l250 250q10 10 25 10t25-10l250-250q10-11 10-26z" horiz-adv-x="571.4" />

<glyph glyph-name="left-dir" unicode="&#xe849;" d="M357 600v-500q0-14-10-25t-26-11-25 11l-250 250q-10 11-10 25t10 25l250 250q11 11 25 11t26-11 10-25z" horiz-adv-x="357.1" />

<glyph glyph-name="right-dir" unicode="&#xe84a;" d="M321 350q0-14-10-25l-250-250q-11-11-25-11t-25 11-11 25v500q0 15 11 25t25 11 25-11l250-250q10-10 10-25z" horiz-adv-x="357.1" />

<glyph glyph-name="globe-1" unicode="&#xe84b;" d="M429 779q116 0 215-58t156-156 57-215-57-215-156-156-215-58-216 58-155 156-58 215 58 215 155 156 216 58z m153-291q-2-1-6-5t-7-6q1 0 2 3t3 6 2 4q3 4 12 8 8 4 29 7 19 5 29-6-1 1 5 7t8 7q2 1 8 3t9 4l1 12q-7-1-10 4t-3 12q0-2-4-5 0 4-2 5t-7-1-5-1q-5 2-8 5t-5 9-2 8q-1 3-5 6t-5 6q-1 1-2 3t-1 4-3 3-3 1-4-3-4-5-2-3q-2 1-4 1t-2-1-3-1-3-2q-1-2-4-2t-5-1q8 3-1 6-5 2-9 2 6 2 5 6t-5 8h3q-1 2-5 5t-10 5-7 3q-5 3-19 5t-18 1q-3-4-3-6t2-8 2-7q1-3-3-7t-3-7q0-4 7-9t6-12q-2-4-9-9t-9-6q-3-5-1-11t6-9q1-1 1-2t-2-3-3-2-4-2l-1-1q-7-3-12 3t-7 15q-4 14-9 17-13 4-16-1-3 7-23 15-14 5-33 2 4 0 0 8-4 9-10 7 1 3 2 10t0 7q2 8 7 13 1 1 4 5t5 7 1 4q19-3 28 6 2 3 6 9t6 10q5 3 8 3t8-3 8-3q8-1 8 6t-4 11q7 0 2 10-2 4-5 5-6 2-15-3-4-2 2-4-1 0-6-6t-9-10-9 3q0 0-3 7t-5 8q-5 0-9-9 1 5-6 9t-14 4q11 7-4 15-4 3-12 3t-11-2q-2-4-3-7t3-4 6-3 6-2 5-2q8-6 5-8-1 0-5-2t-6-2-4-2q-1-3 0-8t-1-8q-3 3-5 10t-4 9q4-5-14-3l-5 0q-3 0-9-1t-12-1-7 5q-3 4 0 11 0 2 2 1-2 2-6 5t-6 5q-25-8-52-23 3 0 6 1 3 1 8 4t5 3q19 7 24 4l3 2q7-9 11-14-4 3-17 1-11-3-12-7 4-6 2-10-2 2-6 6t-8 6-8 3q-9 0-13-1-81-45-131-124 4-4 7-4 2-1 3-5t1-6 6 1q5-4 2-10 1 0 25-15 10-10 11-12 2-6-5-10-1 1-5 5t-5 2q-2-3 0-10t6-7q-4 0-5-9t-2-20 0-13l1-1q-2-6 3-19t12-11q-7-1 11-24 3-4 4-5 2-1 7-4t9-6 5-5q2-3 6-13t8-13q-2-3 5-11t6-13q-1 0-2-1t-1 0q2-4 9-8t8-7q1-2 1-6t2-6 4-1q2 11-13 35-8 13-9 16-2 2-4 8t-2 8q1 0 3 0t5-2 4-3 1-1q-1-4 1-10t7-10 10-11 6-7q4-4 8-11t0-8q5 0 11-5t10-11q3-5 4-15t3-13q1-4 5-8t7-5l9-5t7-3q3-2 10-6t12-7q6-2 9-2t8 1 8 2q8 1 16-8t12-12q20-10 30-6-1 0 1-4t4-9 5-8 3-5q3-3 10-8t10-8q4 2 4 5-1-5 4-11t10-6q8 2 8 18-17-8-27 10 0 0-2 3t-2 5-1 4 0 5 2 1q5 0 6 2t-1 7-2 8q-1 4-6 11t-7 8q-3-5-9-4t-9 5q0-1-1-3t-1-4q-7 0-8 0 1 2 1 10t2 13q1 2 3 6t5 9 2 7-3 5-9 1q-11 0-15-11-1-2-2-6t-2-6-5-4q-4-2-14-1t-13 3q-8 4-13 16t-5 20q0 6 1 15t2 14-3 14q2 1 5 5t5 6q2 1 3 1t3 0 2 1 1 3q0 1-2 2-1 1-2 1 4-1 16 1t15-1q9-6 12 1 0 1-1 6t0 7q3-15 16-5 2-1 9-3t9-2q2-1 4-3t3-3 3 0 5 4q5-8 7-13 6-23 10-25 4-2 6-1t3 5 0 8-1 7l-1 5v10l0 4q-8 2-10 7t0 10 9 10q0 1 4 2t9 4 7 4q12 11 8 20 4 0 6 5 0 0-2 2t-5 2-2 2q5 2 1 8 3 2 4 7t4 5q5-6 12-1 5 5 1 9 2 4 11 6t10 5q4-1 5 1t0 7 2 7q2 2 9 5t7 2l9 7q2 2 0 2 10-1 18 6 5 6-4 11 2 4-1 5t-9 4q2 0 7 0t5 1q9 5-3 9-10 2-24-7z m-91-490q115 21 195 106-1 2-7 2t-7 2q-10 4-13 5 1 4-1 7t-5 5-7 5-6 4q-1 1-4 3t-4 3-4 2-5 2-5-1l-2-1q-2 0-3-1t-3-2-2-1 0-2q-12 10-20 13-3 0-6 3t-6 4-6 0-6-3q-3-3-4-9t-1-7q-4 3 0 10t1 10q-1 3-6 2t-6-2-7-5-5-3-4-3-5-5q-2-2-4-6t-2-6q-1 2-7 3t-5 3q1-5 2-19t3-22q4-17-7-26-15-14-16-23-2-12 7-14 0-4-5-12t-4-12q0-3 2-9z" horiz-adv-x="857.1" />

<glyph glyph-name="inbox" unicode="&#xe84c;" d="M571 314h176q0 2-1 5t-2 4l-118 277h-395l-118-277q-1-1-2-4t-1-5h176l53-107h179z m286-16v-269q0-15-10-25t-26-11h-785q-15 0-25 11t-11 25v269q0 34 14 68l133 308q5 14 20 24t29 9h465q14 0 29-9t20-24l133-308q14-34 14-68z" horiz-adv-x="857.1" />

<glyph glyph-name="award" unicode="&#xe84d;" d="M256 357q-42 91-42 207h-143v-53q0-44 53-91t132-63z m601 154v53h-143q0-116-41-207 79 16 131 63t53 91z m72 71v-71q0-40-24-80t-62-73-97-54-120-25q-23-30-53-53-21-19-29-40t-8-50q0-30 17-51t54-21q42 0 75-25t32-64v-36q0-8-5-13t-13-5h-464q-8 0-13 5t-5 13v36q0 39 33 64t74 25q38 0 55 21t17 51q0 28-8 50t-29 40q-30 23-53 53-64 3-121 25t-96 54-63 73-23 80v71q0 23 16 38t38 16h160v53q0 37 27 63t63 27h321q37 0 63-27t26-63v-53h161q22 0 38-16t16-38z" horiz-adv-x="928.6" />

<glyph glyph-name="down-open-big" unicode="&#xe84e;" d="M63 570l370-356 372 356q22 26 48 0 26-22 0-48l-396-392q-22-22-48 0l-396 392q-26 26 0 48 24 24 50 0z" horiz-adv-x="866" />

<glyph glyph-name="left-open-big" unicode="&#xe84f;" d="M452-20q26-26 0-48-26-26-48 0l-392 394q-24 24 0 50l392 394q22 26 48 0 26-22 0-48l-358-372z" horiz-adv-x="465" />

<glyph glyph-name="right-open-big" unicode="&#xe850;" d="M13-20l358 370-358 372q-26 26 0 48 26 26 48 0l392-394q24-26 0-50l-392-394q-22-26-48 0-26 22 0 48z" horiz-adv-x="465" />

<glyph glyph-name="up-open-big" unicode="&#xe851;" d="M804 130l-372 358-370-358q-26-22-50 0-24 24 0 50l396 390q26 26 48 0l396-390q24-26 0-50-26-22-48 0z" horiz-adv-x="864" />

<glyph glyph-name="flash" unicode="&#xe852;" d="M40-100q-4 4 35 94t79 182 38 98-94 45-98 55q-4 12 84 120t180 209 96 97q6-4-74-186t-78-186 95-43 97-57q4-20-174-227t-186-201z" horiz-adv-x="400" />

<glyph glyph-name="quote-right" unicode="&#xe853;" d="M18 685l335 0 0-334q0-140-98-238t-237-97l0 111q92 0 158 65t65 159l-223 0 0 334z m558 0l335 0 0-334q0-140-98-238t-237-97l0 111q92 0 158 65t65 159l-223 0 0 334z" horiz-adv-x="928" />

<glyph glyph-name="quote-left" unicode="&#xe854;" d="M911 16l-335 0 0 335q0 139 99 236t236 98l0-111q-93 0-158-66t-65-157l223 0 0-335z m-558 0l-335 0 0 335q0 139 98 236t237 98l0-111q-93 0-158-66t-65-157l223 0 0-335z" horiz-adv-x="928" />

<glyph glyph-name="resize-full-alt" unicode="&#xe855;" d="M839 55l72 72 0-224-223 0 72 72-184 185 79 79z m-749 591l-72-72 0 223 223 0-72-72 184-184-79-79z m670 79l-72 72 223 0 0-223-72 72-184-184-79 79z m-407-565l-184-185 72-72-223 0 0 224 72-72 184 184z" horiz-adv-x="928" />

<glyph glyph-name="amazon-1" unicode="&#xe856;" d="M2 74q5 8 16 1 250-145 544-145 196 0 387 73 5 2 15 6t13 6q15 6 24-6t-6-22q-18-13-46-30-86-51-192-79t-207-28q-156 0-295 54t-249 154q-6 5-6 10 0 3 2 6z m301 285q0 69 34 118t93 74q54 23 133 33 27 3 88 8l0 17q0 64-14 86-21 30-66 30l-8 0q-33-3-57-21t-31-50q-4-20-20-23l-115 14q-17 4-17 18 0 3 1 7 17 89 84 132t155 48l25 0q114 0 178-59 10-10 19-21t13-21 9-26 6-23 3-28 1-26l0-242q0-26 8-47t14-31 23-31q6-9 6-16 0-8-8-14-83-72-90-78-12-9-29-2-14 12-24 23t-15 16-15 20-14 19q-56-61-110-76-34-10-84-10-77 0-126 48t-50 134z m172 20q0-39 20-62t52-24q3 0 9 1t7 1q42 11 65 54 11 19 17 42t6 36 0 46l0 25q-58 0-88-8-88-25-88-111z m420-322q2 4 6 8 25 17 48 23 38 10 74 11 10 1 19-1 45-4 54-15 4-6 4-18l0-7q0-35-19-83t-53-76q-5-4-9-4-2 0-4 1-6 3-3 11 37 87 37 121 0 11-4 16-10 12-56 12-17 0-40-2-25-3-46-6-6 0-8 2t-1 4q0 1 1 3z" horiz-adv-x="1100" />

<glyph glyph-name="down-circle" unicode="&#xe857;" d="M1000 349q0-136-67-251t-182-182-251-67-251 67-182 182-67 251 67 251 182 182 251 67 251-67 182-182 67-251z m-500-186l232 233-71 71-161-161-161 161-71-71z" horiz-adv-x="1000" />

<glyph glyph-name="left-circle" unicode="&#xe858;" d="M1000 349q0-136-67-251t-182-182-251-67-251 67-182 182-67 251 67 251 182 182 251 67 251-67 182-182 67-251z m-453-232l71 71-161 161 161 161-71 71-233-232z" horiz-adv-x="1000" />

<glyph glyph-name="up-circle" unicode="&#xe859;" d="M1000 349q0-136-67-251t-182-182-251-67-251 67-182 182-67 251 67 251 182 182 251 67 251-67 182-182 67-251z m-339-118l71 71-232 233-232-233 71-71 161 161z" horiz-adv-x="1000" />

<glyph glyph-name="right-circle" unicode="&#xe85a;" d="M1000 349q0-136-67-251t-182-182-251-67-251 67-182 182-67 251 67 251 182 182 251 67 251-67 182-182 67-251z m-547-232l233 232-233 232-71-71 161-161-161-161z" horiz-adv-x="1000" />

<glyph glyph-name="camera-alt" unicode="&#xe85b;" d="M518 386q0 8-5 13t-13 5q-37 0-63-27t-26-63q0-7 5-12t13-6 12 6 5 12q0 23 16 38t38 16q8 0 13 5t5 13z m125-73q0-59-42-101t-101-42-101 42-42 101 42 101 101 42 101-42 42-101z m-572-320h858v71h-858v-71z m643 320q0 89-62 152t-152 63-151-63-63-152 63-151 151-63 152 63 62 151z m-571 358h214v72h-214v-72z m-72-107h858v143h-462l-36-71h-360v-72z m929 143v-714q0-30-21-51t-50-21h-858q-29 0-50 21t-21 51v714q0 30 21 51t50 21h858q29 0 50-21t21-51z" horiz-adv-x="1000" />

<glyph glyph-name="video" unicode="&#xe85c;" d="M214-43v72q0 14-10 25t-25 10h-72q-14 0-25-10t-11-25v-72q0-14 11-25t25-11h72q14 0 25 11t10 25z m0 214v72q0 14-10 25t-25 11h-72q-14 0-25-11t-11-25v-72q0-14 11-25t25-10h72q14 0 25 10t10 25z m0 215v71q0 15-10 25t-25 11h-72q-14 0-25-11t-11-25v-71q0-15 11-25t25-11h72q14 0 25 11t10 25z m572-429v286q0 14-11 25t-25 11h-429q-14 0-25-11t-10-25v-286q0-14 10-25t25-11h429q15 0 25 11t11 25z m-572 643v71q0 15-10 26t-25 10h-72q-14 0-25-10t-11-26v-71q0-14 11-25t25-11h72q14 0 25 11t10 25z m786-643v72q0 14-11 25t-25 10h-71q-15 0-25-10t-11-25v-72q0-14 11-25t25-11h71q15 0 25 11t11 25z m-214 429v285q0 15-11 26t-25 10h-429q-14 0-25-10t-10-26v-285q0-15 10-25t25-11h429q15 0 25 11t11 25z m214-215v72q0 14-11 25t-25 11h-71q-15 0-25-11t-11-25v-72q0-14 11-25t25-10h71q15 0 25 10t11 25z m0 215v71q0 15-11 25t-25 11h-71q-15 0-25-11t-11-25v-71q0-15 11-25t25-11h71q15 0 25 11t11 25z m0 214v71q0 15-11 26t-25 10h-71q-15 0-25-10t-11-26v-71q0-14 11-25t25-11h71q15 0 25 11t11 25z m71 89v-750q0-37-26-63t-63-26h-893q-36 0-63 26t-26 63v750q0 37 26 63t63 27h893q37 0 63-27t26-63z" horiz-adv-x="1071.4" />

<glyph glyph-name="volume-up" unicode="&#xe85d;" d="M429 654v-608q0-14-11-25t-25-10-25 10l-186 186h-146q-15 0-25 11t-11 25v214q0 15 11 25t25 11h146l186 186q10 10 25 10t25-10 11-25z m214-304q0-42-24-79t-63-52q-5-3-14-3-14 0-25 10t-10 26q0 12 6 20t17 14 19 12 16 21 6 31-6 32-16 20-19 13-17 13-6 20q0 15 10 26t25 10q9 0 14-3 39-15 63-52t24-79z m143 0q0-85-48-158t-125-105q-7-3-14-3-15 0-26 11t-10 25q0 22 21 33 32 16 43 25 41 30 64 75t23 97-23 97-64 75q-11 9-43 25-21 11-21 33 0 14 10 25t25 11q8 0 15-3 78-33 125-105t48-158z m143 0q0-128-71-236t-189-158q-7-3-14-3-15 0-25 11t-11 25q0 20 22 33 4 2 12 6t13 6q25 14 46 28 68 51 107 127t38 161-38 161-107 127q-21 15-46 28-4 3-13 6t-12 6q-22 13-22 33 0 15 11 25t25 11q7 0 14-3 118-51 189-158t71-236z" horiz-adv-x="928.6" />

<glyph glyph-name="shopping-bag-2" unicode="&#xe85e;" d="M502 767a167 167 0 0 1-167-167h-85a250 250 0 1 0 500 0h164c48 0 86-39 86-88a91 91 0 0 0-1-15l-93-538c-11-63-64-109-127-109h-558c-63 0-116 46-127 109l-93 537c-8 48 23 94 70 103a84 84 0 0 0 15 1h583a167 167 0 0 1-167 167z m412-250h-828c-1 0-2-2-3-4l0-2 93-538c4-21 20-37 40-39l5-1h558c20 0 38 14 44 35l1 5 93 538c0 0 0 0 0 1 0 2-1 4-2 4l-1 1z" horiz-adv-x="1000" />

<glyph glyph-name="download-app" unicode="&#xe85f;" d="M668 408h-74v148c0 11-9 20-20 20h-148c-11 0-20-9-20-20v-148h-74c-7 0-14-5-17-11-3-7-3-15 2-21l167-222c4-5 10-8 16-8s12 3 16 8l167 222c5 6 5 14 2 21-3 6-10 11-17 11z m-168-210l-128 170h54c11 0 19 9 19 20v149h110v-149c0-11 9-20 19-20h55z m235 652h-470c-52 0-94-42-94-94v-812c0-52 42-94 94-94h470c52 0 94 42 94 94v812c0 52-42 94-94 94z m-525-94c0 30 25 55 55 55h470c31 0 55-25 55-55v-711h-580z m580-812c0-30-24-55-55-55h-470c-30 0-55 25-55 55v62h580v-62z m-303-16h26c11 0 20 9 20 19s-9 20-20 20h-26c-11 0-20-9-20-20s9-19 20-19z m-80 806h186c11 0 19 8 19 19s-8 20-19 20h-186c-10 0-19-9-19-20s9-19 19-19z" horiz-adv-x="1000" />

<glyph glyph-name="box-1" unicode="&#xe860;" d="M960 629l-454 220c-4 2-8 2-12 0l-454-220c-5-2-9-7-9-13v-532c0-6 4-11 9-13l454-220c2-1 4-1 6-1s4 0 6 1l454 220c6 2 9 7 9 13v532c0 6-3 11-9 13z m-460 190l420-203-121-59c-1 1-2 2-3 2l-417 201 121 59z m-155-75l420-203-86-41-419 202 85 42z m430-230v-154l-80-39v154l80 39z m164-421l-424-205v500l101 49c7 3 10 12 7 19-4 8-12 11-20 7l-103-50-41 20c-7 3-16 0-19-7-4-7-1-16 7-19l38-19v-500l-424 205v500l323-156c2-1 4-2 6-2 6 0 11 3 14 9 3 7 0 16-7 19l-317 153 145 70 440-212c0 0 0 0 0 0v-176c0-5 3-10 7-12 3-2 5-3 8-3 2 0 4 1 6 2l110 53c5 2 8 7 8 13v177l135 65v-500z m-757 57l-67 32c-7 4-16 1-20-7-3-7 0-16 7-19l67-32c2-1 4-2 6-2 6 0 11 3 13 8 4 8 1 16-6 20z m61 40l-128 62c-7 3-16 0-20-7-3-8 0-16 7-20l128-62c2-1 4-1 6-1 6 0 11 3 14 8 3 8 0 16-7 20z" horiz-adv-x="1000" />

<glyph glyph-name="delivery-return" unicode="&#xe861;" d="M500 850c-247 0-449-201-449-449 0-242 193-439 433-448v-103l119 119-119 118v-102c-222 9-400 192-400 416 0 230 186 417 416 417s417-187 417-417h32c0 248-202 449-449 449z m16-840l41-41-41-41v82z m-256 632v-481h480v481h-480z m192-32l0 0h96v-64h-96v64z m256-417h-416v417h128v-96h160v96h128v-417z" horiz-adv-x="1000" />

<glyph glyph-name="payment-security" unicode="&#xe862;" d="M824 159c-8 0-14-6-14-15v-240c0-14-11-25-25-25h-731c-14 0-25 11-25 25v195c0 8-6 15-14 15s-15-7-15-15v-195c0-30 24-54 54-54h731c30 0 54 24 54 54v240c0 9-7 15-15 15z m-424-183c8 0 15 7 15 15s-7 15-15 15h-279c-8 0-15-7-15-15s7-15 15-15z m116 0c8 0 15 7 15 15s-7 15-15 15h-44c-8 0-15-7-15-15s7-15 15-15z m101 0c8 0 15 7 15 15s-7 15-15 15h-44c-8 0-15-7-15-15s7-15 15-15z m101 0c8 0 15 7 15 15s-7 15-15 15h-44c-8 0-15-7-15-15s7-15 15-15z m-62 464c-4 8-13 10-20 6l-12-7v14c0 8-7 14-15 14s-14-6-14-14v-14l-12 7c-7 4-16 2-20-6-5-7-2-15 5-20l12-7-12-6c-7-5-10-14-5-21 2-4 7-7 12-7 3 0 5 1 8 2l12 7v-14c0-8 6-15 14-15s15 7 15 15v14l12-7c2-1 5-2 7-2 5 0 10 3 13 7 4 7 2 16-5 21l-12 6 12 7c7 5 9 13 5 20z m118 0c-4 8-13 10-20 6l-12-7v14c0 8-7 14-15 14s-14-6-14-14v-14l-13 7c-7 4-15 2-20-6-4-7-1-15 6-20l12-7-12-6c-7-5-10-14-6-21 3-4 8-7 13-7 3 0 5 1 7 2l13 7v-14c0-8 6-15 14-15s15 7 15 15v14l12-7c2-1 5-2 7-2 5 0 10 3 13 7 4 7 2 16-5 21l-12 6 12 7c7 5 9 13 5 20z m86 13c0 8-7 14-15 14s-14-6-14-14v-14l-13 7c-7 4-16 2-20-6-4-7-1-15 6-20l12-7-12-6c-7-5-10-14-6-21 3-4 8-7 13-7 3 0 5 1 7 2l13 7v-14c0-8 6-15 14-15s15 7 15 15v14l12-7c2-1 5-2 7-2 5 0 10 3 13 7 4 7 2 16-5 21l-13 6 13 7c7 5 9 13 5 20-4 8-13 10-20 6l-12-7z m125 323h-113c-37 0-72 14-99 39l0 0-29 28c-9 9-24 9-34 0l-29-27c-26-26-61-40-98-40h-114c-8 0-14-7-14-15v-295c0-41 10-83 28-120h-454v39c0 14 11 25 25 25h353c8 0 15 6 15 14s-7 15-15 15h-353c-30 0-54-24-54-54v-213c0-8 7-14 15-14s14 6 14 14v53h578l108-68c3-2 8-4 13-4 4 0 9 2 13 4l136 86c38 24 69 57 90 96 22 38 33 83 33 127v295c0 8-7 15-15 15z m-956-459h472c16-24 37-45 61-63h-533v63z m942 149c0-81-41-155-110-198l-133-84-134 84c-69 43-110 117-110 198v281h99c44 0 87 17 119 47l25 25 26-25v0c32-30 74-47 119-47h99v-281z m-244 107c-10 0-19 9-19 19 0 8-6 15-14 15s-15-7-15-15c0-21 14-40 34-46v-18c0-8 6-14 14-14s15 6 15 14v18c19 6 34 25 34 46 0 27-22 48-49 48 0 0 0 0-1 0-10 1-18 9-18 19 0 11 9 19 19 19s19-8 19-19c0-8 7-14 15-14s15 6 15 14c0 22-15 40-34 46v18c0 8-7 15-15 15s-14-7-14-15v-18c-20-6-34-24-34-46 0-26 22-48 48-48 1 0 1 0 1 0 10-1 18-9 18-19 0-10-8-19-19-19z" horiz-adv-x="1000" />

<glyph glyph-name="ticket" unicode="&#xe863;" d="M979 454c12 0 21 10 21 21v167c0 46-37 83-83 83h-834c-46 0-83-37-83-83v-167c0-11 9-21 21-21 57 0 104-47 104-104s-47-104-104-104c-12 0-21-9-21-21v-167c0-46 37-83 83-83h834c46 0 83 37 83 83v167c0 12-9 21-21 21-57 0-104 47-104 104s47 104 104 104z m-146-104c0-73 55-134 125-144v-148c0-23-18-41-41-41h-834c-23 0-41 18-41 41v148c70 10 125 71 125 144s-55 134-125 144v148c0 23 18 41 41 41h834c23 0 41-18 41-41v-148c-70-10-125-71-125-144z m-562 297c-12 0-21-9-21-21v-47c0-11 9-21 21-21 11 0 21 10 21 21v47c0 12-10 21-21 21z m0-172c-12 0-21-9-21-21v-41c0-12 9-21 21-21 11 0 21 9 21 21v41c0 12-10 21-21 21z m0-167c-12 0-21-9-21-20v-42c0-12 9-21 21-21 11 0 21 9 21 21v42c0 11-10 20-21 20z m0-166c-12 0-21-10-21-21v-42c0-11 9-21 21-21 11 0 21 10 21 21v42c0 11-10 21-21 21z m458 375h-291c-12 0-21-10-21-21 0-12 9-21 21-21h291c12 0 21 9 21 21 0 11-9 21-21 21z m0-146h-291c-12 0-21-9-21-21s9-21 21-21h291c12 0 21 10 21 21s-9 21-21 21z m0-146h-291c-12 0-21-9-21-21 0-11 9-21 21-21h291c12 0 21 10 21 21 0 12-9 21-21 21z" horiz-adv-x="1000" />

<glyph glyph-name="share" unicode="&#xe864;" d="M750-100h-500c-62 0-117 54-117 117v333c0 17 17 33 34 33s33-16 33-33v-333c0-30 21-50 50-50h500c29 0 50 20 50 50v333c0 17 17 33 33 33s34-16 34-33v-333c0-63-54-117-117-117z m-58 725l-167 167c0 0 0 0 0 0-4 4-4 4-8 4-4 0-9 4-13 4 0 0 0 0 0 0 0 0 0 0 0 0-4 0-8 0-12-4-4 0-9-4-9-4 0 0 0 0 0 0l-166-167c-13-12-13-33 0-46 12-12 33-12 46 0l108 109v-463c0-17 17-33 33-33s34 16 34 33v463l108-109c8-8 17-8 25-8s17 4 25 8c8 9 8 34-4 46z" horiz-adv-x="1000" />

<glyph glyph-name="repeat" unicode="&#xe865;" d="M904 629c4 9 4 17 0 25 0 4-4 9-8 9 0 0 0 0 0 0l-167 166c-12 13-33 13-46 0-12-12-12-33 0-46l109-108h-500c-109 0-200-92-200-200v-83c0-17 16-34 33-34s33 17 33 34v83c0 75 59 133 134 133h504l-108-108c-13-12-13-33 0-46 8-8 16-8 25-8s16 4 25 8l166 167c0 0 0 0 0 0-4 0 0 4 0 8z m-29-287c-17 0-33-17-33-34v-83c0-75-59-133-134-133h-504l109 108c12 13 12 33 0 46-13 12-34 12-46 0l-167-167c0 0 0 0 0 0-4-4-4-4-8-8-4-8-4-17 0-25 0-4 4-8 8-8 0 0 0 0 0 0l167-167c8-9 16-9 25-9s16 5 25 9c12 12 12 33 0 46l-109 108h500c109 0 200 92 200 200v83c0 17-16 34-33 34z" horiz-adv-x="1000" />

<glyph glyph-name="resize" unicode="&#xe866;" d="M250 788v62h-219c-17 0-31-14-31-31v-219h63v143l290-290 44 44-290 291h143z m719 62h-219v-62h143l-290-291 44-44 291 290v-143h62v219c0 17-14 31-31 31z m-31-893l-291 290-44-44 290-291h-143v-62h219c17 0 31 14 31 31v219h-62v-143z m-585 290l-290-290v143h-63v-219c0-17 14-31 31-31h219v62h-143l290 291-44 44z" horiz-adv-x="1000" />

<glyph glyph-name="down-open" unicode="&#xf004;" d="M0 533q0 25 18 43t44 18 42-18l305-303 304 303q18 18 43 18t43-18q18-18 18-43t-18-43l-390-391-391 391q-18 19-18 43z" horiz-adv-x="817.4" />

<glyph glyph-name="up-open" unicode="&#xf005;" d="M0 167q0 26 18 43l391 391 390-391q17-17 17-43 0-26-17-44-18-17-44-17t-43 17l-303 305-305-305q-18-17-43-17t-43 17q-18 18-18 44z" horiz-adv-x="816.9" />

<glyph glyph-name="right-open" unicode="&#xf006;" d="M0 0q0 25 18 43l305 304-305 304q-18 18-18 44t18 43 44 18 43-18l390-391-390-391q-19-18-43-18t-44 18q-18 18-18 44z" horiz-adv-x="495.1" />

<glyph glyph-name="left-open" unicode="&#xf007;" d="M0 353l391 391q18 18 43 18 24 0 43-18 18-18 18-44t-18-43l-304-304 304-305q18-17 18-43t-18-43q-18-18-43-18t-43 18z" horiz-adv-x="495.1" />

<glyph glyph-name="ok-circled" unicode="&#xf06d;" d="M0 350q0 95 37 182t100 149 150 100 182 37 182-37 149-100 100-149 37-182-37-182-100-150-149-100-182-37-182 37-150 100-100 150-37 182z m177-31q0-22 15-38l153-153q14-15 38-15 22 0 37 15l315 315q16 16 16 38t-16 37-38 15-37-15l-277-278-116 116q-15 15-37 15t-38-15q-15-16-15-37z" horiz-adv-x="937.5" />

<glyph glyph-name="cancel-circled" unicode="&#xf06e;" d="M0 350q0 95 37 182t100 149 150 100 182 37 182-37 149-100 100-149 37-182-37-182-100-150-149-100-182-37-182 37-150 100-100 150-37 182z m261-155q0-22 15-38 15-15 37-15 22 0 37 15l119 119 118-119q15-15 37-15 22 0 37 15 15 16 15 38t-15 37l-118 118 118 119q15 15 15 37t-15 37-37 15-37-15l-118-119-119 119q-15 15-37 15t-37-15q-15-15-15-37t15-37l118-119-118-118q-15-15-15-37z" horiz-adv-x="937.5" />

<glyph glyph-name="bookmark-empty" unicode="&#xf097;" d="M643 707h-572v-693l237 227 49 47 50-47 236-227v693z m7 72q12 0 24-5 19-8 29-23t11-35v-719q0-19-11-35t-29-23q-10-4-24-4-27 0-47 18l-246 236-246-236q-20-19-46-19-13 0-25 5-18 7-29 23t-11 35v719q0 19 11 35t29 23q12 5 25 5h585z" horiz-adv-x="714.3" />

<glyph glyph-name="twitter" unicode="&#xf099;" d="M904 622q-37-54-90-93 0-8 0-23 0-73-21-145t-64-139-103-117-144-82-181-30q-151 0-276 81 19-2 43-2 126 0 224 77-59 1-105 36t-64 89q19-3 34-3 24 0 48 6-63 13-104 62t-41 115v2q38-21 82-23-37 25-59 64t-22 86q0 49 25 91 68-83 164-133t208-55q-5 21-5 41 0 75 53 127t127 53q79 0 132-57 61 12 115 44-21-64-80-100 52 6 104 28z" horiz-adv-x="928.6" />

<glyph glyph-name="facebook" unicode="&#xf09a;" d="M535 843v-147h-87q-48 0-65-20t-17-60v-106h164l-22-165h-142v-424h-171v424h-142v165h142v122q0 104 58 161t155 57q82 0 127-7z" horiz-adv-x="571.4" />

<glyph glyph-name="github-circled" unicode="&#xf09b;" d="M429 779q116 0 215-58t156-156 57-215q0-140-82-252t-211-155q-15-3-22 4t-7 17q0 1 0 43t0 75q0 54-29 79 32 3 57 10t53 22 45 37 30 58 11 84q0 67-44 115 21 51-4 114-16 5-46-6t-51-25l-21-13q-52 15-107 15t-108-15q-8 6-23 15t-47 22-47 7q-25-63-5-114-44-48-44-115 0-47 12-83t29-59 45-37 52-22 57-10q-21-20-27-58-12-5-25-8t-32-3-36 12-31 35q-11 18-27 29t-28 14l-11 1q-12 0-16-2t-3-7 5-8 7-6l4-3q12-6 24-21t18-29l6-13q7-21 24-34t37-17 39-3 31 1l13 3q0-22 0-50t1-30q0-10-8-17t-22-4q-129 43-211 155t-82 252q0 117 58 215t155 156 216 58z m-267-616q2 4-3 7-6 1-8-1-1-4 4-7 5-3 7 1z m18-19q4 3-1 9-6 5-9 2-4-3 1-9 5-6 9-2z m16-25q6 4 0 11-4 7-9 3-5-3 0-10t9-4z m24-23q4 4-2 10-7 7-11 2-5-5 2-11 6-6 11-1z m32-14q1 6-8 9-8 2-10-4t7-9q8-3 11 4z m35-3q0 7-10 6-9 0-9-6 0-7 10-6 9 0 9 6z m32 5q-1 7-10 5-9-1-8-8t10-4 8 7z" horiz-adv-x="857.1" />

<glyph glyph-name="linkedin" unicode="&#xf0e1;" d="M195 501v-553h-184v553h184z m12 171q0-41-29-68t-75-27h-1q-46 0-74 27t-28 68q0 41 29 68t75 27 74-27 29-68z m650-407v-317h-183v296q0 59-23 92t-71 33q-35 0-58-19t-36-48q-6-17-6-45v-309h-184q1 223 1 361t0 165l-1 27h184v-80h-1q11 18 23 31t31 29 49 24 64 9q95 0 153-63t58-186z" horiz-adv-x="857.1" />

<glyph glyph-name="desktop" unicode="&#xf108;" d="M1000 296v465q0 7-5 12t-13 6h-893q-7 0-12-6t-6-12v-465q0-7 6-12t12-5h893q7 0 13 5t5 12z m71 465v-607q0-37-26-63t-63-27h-303q0-20 9-43t17-40 9-24q0-14-10-25t-25-11h-286q-15 0-25 11t-11 25q0 8 9 25t18 39 9 43h-304q-36 0-63 27t-26 63v607q0 37 26 63t63 26h893q37 0 63-26t26-63z" horiz-adv-x="1071.4" />

<glyph glyph-name="laptop" unicode="&#xf109;" d="M232 136q-37 0-63 26t-26 63v393q0 37 26 63t63 26h607q37 0 63-26t27-63v-393q0-37-27-63t-63-26h-607z m-18 482v-393q0-7 6-13t12-5h607q8 0 13 5t5 13v393q0 7-5 12t-13 6h-607q-7 0-12-6t-6-12z m768-518h89v-54q0-22-26-37t-63-16h-893q-36 0-63 16t-26 37v54h982z m-402-54q9 0 9 9t-9 9h-89q-9 0-9-9t9-9h89z" horiz-adv-x="1071.4" />

<glyph glyph-name="tablet" unicode="&#xf10a;" d="M357 64q0 15-10 25t-26 11-25-11-10-25 10-25 25-10 26 10 10 25z m214 90v535q0 8-5 13t-12 5h-465q-7 0-12-5t-6-13v-535q0-8 6-13t12-5h465q7 0 12 5t5 13z m72 535v-607q0-37-26-63t-63-26h-465q-36 0-63 26t-26 63v607q0 37 26 63t63 27h465q36 0 63-27t26-63z" horiz-adv-x="642.9" />

<glyph glyph-name="mobile" unicode="&#xf10b;" d="M259 64q0 19-13 32t-32 13-31-13-13-32 13-31 31-13 32 13 13 31z m116 90v392q0 8-5 13t-13 5h-286q-7 0-12-5t-5-13v-392q0-8 5-13t12-5h286q7 0 13 5t5 13z m-107 473q0 9-9 9h-89q-9 0-9-9t9-9h89q9 0 9 9z m161 9v-572q0-29-22-50t-50-21h-286q-29 0-50 21t-21 50v572q0 29 21 50t50 21h286q29 0 50-21t22-50z" horiz-adv-x="428.6" />

<glyph glyph-name="circle-empty" unicode="&#xf10c;" d="M429 654q-83 0-153-41t-110-111-41-152 41-152 110-111 153-41 152 41 110 111 41 152-41 152-110 111-152 41z m428-304q0-117-57-215t-156-156-215-58-216 58-155 156-58 215 58 215 155 156 216 58 215-58 156-156 57-215z" horiz-adv-x="857.1" />

<glyph glyph-name="circle" unicode="&#xf111;" d="M857 350q0-117-57-215t-156-156-215-58-216 58-155 156-58 215 58 215 155 156 216 58 215-58 156-156 57-215z" horiz-adv-x="857.1" />

<glyph glyph-name="star-half-alt" unicode="&#xf123;" d="M662 316l143 140-198 29-37 5-17 34-89 179v-537l33-17 178-94-34 198-6 37z m252 146l-202-197 48-279q2-19-4-29t-19-11q-9 0-22 7l-251 132-250-132q-13-7-23-7-12 0-19 11t-3 29l48 279-203 197q-18 18-13 33t30 20l280 40 126 254q11 23 27 23 16 0 28-23l125-254 280-40q25-4 31-20t-14-33z" horiz-adv-x="928.6" />

<glyph glyph-name="unlink" unicode="&#xf127;" d="M245 141l-143-143q-6-5-13-5t-12 5q-6 6-6 13t6 13l142 142q6 5 13 5t13-5q5-5 5-12t-5-13z m94-23v-179q0-8-5-13t-13-5-12 5-5 13v179q0 8 5 13t12 5 13-5 5-13z m-125 125q0-8-5-13t-13-5h-178q-8 0-13 5t-5 13 5 13 13 5h178q8 0 13-5t5-13z m706-72q0-66-48-113l-82-81q-46-47-113-47-68 0-114 48l-186 187q-12 12-24 31l134 10 152-153q15-15 38-15t38 15l82 81q16 16 16 37 0 23-16 38l-153 154 10 133q20-11 31-23l188-188q47-48 47-114z m-345 404l-133-10-152 153q-16 16-38 16-22 0-38-15l-82-82q-16-15-16-37 0-22 16-38l153-153-10-134q-20 12-32 24l-187 187q-47 48-47 114 0 67 47 113l82 82q47 46 114 46 67 0 114-47l186-187q12-12 23-32z m354-46q0-8-5-13t-13-5h-179q-8 0-13 5t-5 13 5 12 13 5h179q8 0 13-5t5-12z m-304 303v-178q0-8-5-13t-13-5-13 5-5 13v178q0 8 5 13t13 5 13-5 5-13z m227-84l-143-143q-6-5-13-5t-12 5q-5 6-5 13t5 13l143 143q5 5 12 5t13-5q5-6 5-13t-5-13z" horiz-adv-x="928.6" />

<glyph glyph-name="maxcdn" unicode="&#xf136;" d="M974 419l-92-426h-186l99 464q8 31-8 49-15 19-46 19h-95l-114-532h-186l114 532h-160l-114-532h-186l114 532-85 182h712q56 0 105-22t83-64q33-40 45-94t0-108z" horiz-adv-x="1000" />

<glyph glyph-name="xing" unicode="&#xf168;" d="M333 478q-5-10-143-255-15-25-36-25h-134q-12 0-17 9t0 20l141 250q1 0 0 1l-90 156q-7 12 0 20 5 9 17 9h134q22 0 37-26z m450 358q6-9 0-21l-295-521v0l188-344q6-11 0-20-5-9-17-9h-134q-23 0-37 25l-189 348q10 18 296 525 14 25 36 25h135q12 0 17-8z" horiz-adv-x="785.7" />

<glyph glyph-name="youtube-play" unicode="&#xf16a;" d="M397 221l270 139-270 141v-280z m103 481q94 0 181-3t128-5l41-2q0 0 9-1t13-2 13-2 16-5 16-7 17-11 16-15q4-3 9-10t16-33 15-56q4-36 7-76t3-64v-98q1-81-10-162-4-30-14-55t-18-35l-8-9q-7-8-16-15t-17-10-16-7-16-5-13-2-13-2-9-1q-140-11-350-11-115 2-201 4t-111 4l-28 3-20 2q-20 3-30 5t-29 12-31 23q-4 3-9 10t-16 33-15 56q-4 36-7 76t-3 64v98q-1 81 10 162 4 31 14 55t18 35l8 9q8 9 16 15t17 11 16 7 16 5 13 2 13 2 9 1q140 10 350 10z" horiz-adv-x="1000" />

<glyph glyph-name="stackoverflow" unicode="&#xf16c;" d="M719-61h-624v268h-89v-357h803v357h-90v-268z m-525 293l18 87 437-92-18-87z m57 208l38 82 404-189-37-81z m112 199l57 69 343-287-57-68z m222 211l266-358-71-53-267 357z m-401-821v89h447v-89h-447z" horiz-adv-x="857.1" />

<glyph glyph-name="instagram" unicode="&#xf16d;" d="M571 350q0 59-41 101t-101 42-101-42-42-101 42-101 101-42 101 42 41 101z m77 0q0-91-64-156t-155-64-156 64-64 156 64 156 156 64 155-64 64-156z m61 229q0-21-15-36t-37-15-36 15-15 36 15 36 36 15 37-15 15-36z m-280 123q-4 0-43 0t-59 0-54-2-57-5-40-11q-28-11-49-32t-33-49q-6-16-10-40t-6-58-1-53 0-59 0-43 0-43 0-59 1-53 6-58 10-40q12-28 33-49t49-32q16-6 40-11t57-5 54-2 59 0 43 0 42 0 59 0 54 2 58 5 39 11q28 11 50 32t32 49q6 16 10 40t6 58 1 53 0 59 0 43 0 43 0 59-1 53-6 58-10 40q-11 28-32 49t-50 32q-16 6-39 11t-58 5-54 2-59 0-42 0z m428-352q0-128-3-177-5-116-69-180t-179-69q-50-3-177-3t-177 3q-116 6-180 69t-69 180q-3 49-3 177t3 177q5 116 69 180t180 69q49 3 177 3t177-3q116-6 179-69t69-180q3-49 3-177z" horiz-adv-x="857.1" />

<glyph glyph-name="flickr" unicode="&#xf16e;" d="M696 779q67 0 114-48t47-113v-536q0-66-47-113t-114-48h-535q-67 0-114 48t-47 113v536q0 66 47 113t114 48h535z m-306-429q0 49-35 84t-84 34-83-34-35-84 35-84 83-34 84 34 35 84z m314 0q0 49-34 84t-84 34-84-34-34-84 34-84 84-34 84 34 34 84z" horiz-adv-x="857.1" />

<glyph glyph-name="tumblr" unicode="&#xf173;" d="M527 108l44-132q-12-19-61-37t-99-18q-58-1-107 15t-79 41-53 59-31 67-9 66v304h-94v120q40 14 72 39t51 50 32 57 19 55 8 49q1 3 3 5t4 2h136v-237h186v-140h-186v-289q0-17 3-31t13-30 28-23 45-8q44 1 75 16z" horiz-adv-x="571.4" />

<glyph glyph-name="apple" unicode="&#xf179;" d="M777 172q-21-70-68-139-72-110-144-110-27 0-78 18-48 18-84 18-34 0-79-19-45-19-74-19-85 0-168 145-82 146-82 281 0 127 63 208 63 81 159 81 40 0 98-17 58-17 77-17 25 0 80 19 57 19 97 19 66 0 119-36 29-20 58-56-44-37-64-66-36-52-36-115 0-69 38-125t88-70z m-209 655q0-34-17-76-16-42-52-77-30-30-60-40-20-7-58-10 2 83 44 143 41 60 139 83 1-2 2-6t1-6q0-2 0-6t1-5z" horiz-adv-x="785.7" />

<glyph glyph-name="android" unicode="&#xf17b;" d="M275 581q9 0 16 6t6 15-6 16-16 6-15-6-6-16 6-15 15-6z m236 0q9 0 15 6t6 15-6 16-15 6-16-6-6-16 6-15 16-6z m-453-103q23 0 40-17t16-40v-240q0-24-16-41t-40-17-41 17-17 41v240q0 23 17 40t41 17z m591-11v-371q0-26-18-44t-43-18h-42v-127q0-24-16-40t-41-17-41 17-17 40v127h-77v-127q0-24-16-40t-41-17q-24 0-40 17t-17 40l-1 127h-41q-26 0-43 18t-18 44v371h512z m-129 226q59-30 95-85t36-121h-516q0 66 35 121t96 85l-39 73q-4 8 2 12 8 3 12-4l40-74q53 24 112 24t112-24l40 74q4 7 11 4 7-4 3-12z m266-272v-240q0-24-17-41t-41-17q-23 0-40 17t-17 41v240q0 24 17 40t40 17q24 0 41-17t17-40z" horiz-adv-x="785.7" />

<glyph glyph-name="dribbble" unicode="&#xf17d;" d="M571 13q-23 134-78 278h-1l-1-1q-9-3-24-9t-56-27-77-46-73-64-57-82l-9 6q103-84 234-84 73 0 142 29z m-103 339q-11 27-29 62-174-52-376-52 0-4 0-12 0-69 24-132t69-112q28 49 69 93t80 69 73 45 55 27l21 7q2 1 7 2t7 3z m-59 118q-67 119-137 211-77-36-130-104t-72-152q169 0 339 45z m381-178q-117 33-228 16 49-133 71-262 62 42 104 106t53 140z m-449 414q-1 0-1-1 0 1 1 1z m329-81q-103 91-241 91-43 0-87-10 73-95 137-214 39 15 73 34t54 34 36 32 21 23z m125-271q-2 129-83 229l-1-1q-5-7-11-13t-24-25-40-34-55-36-74-36q14-30 25-53 1-3 3-10t5-9q20 2 41 4t41 1 39-1 35-2 32-3 27-4 20-3 14-3z m62-4q0-117-57-215t-156-156-215-58-216 58-155 156-58 215 58 215 155 156 216 58 215-58 156-156 57-215z" horiz-adv-x="857.1" />

<glyph glyph-name="skype" unicode="&#xf17e;" d="M655 257q0 28-11 51t-27 38-41 27-46 19-49 13l-58 14q-17 4-25 6t-19 6-17 9-9 12-4 16q0 43 80 43 24 0 43-6t30-16 21-19 23-16 27-7q26 0 42 18t16 43q0 31-32 55t-79 38-101 13q-38 0-74-9t-67-26-49-48-19-72q0-34 10-60t32-42 44-27 58-18l81-20q51-12 63-20 18-11 18-34 0-21-23-36t-58-14q-29 0-51 9t-37 22-25 25-26 21-30 9q-28 0-42-17t-14-41q0-52 68-88t162-37q41 0 78 10t69 30 49 52 19 74z m202-121q0-89-63-152t-151-63q-73 0-131 45-43-9-83-9-80 0-153 31t-126 84-83 125-31 153q0 41 9 84-45 58-45 130 0 89 63 152t151 63q73 0 131-45 43 9 84 9 79 0 152-31t126-84 84-125 30-153q0-41-8-84 44-58 44-130z" horiz-adv-x="857.1" />

<glyph glyph-name="foursquare" unicode="&#xf180;" d="M558 608l21 108q3 13-5 22t-20 10h-397q-13 0-22-10t-8-20v-615q0-4 3 0l162 196q13 15 22 19t26 4h134q12 0 20 8t11 17q13 72 20 106 2 12-6 23t-21 10h-164q-16 0-26 11t-11 27v23q0 16 11 27t26 10h193q10 0 20 7t11 17z m127 124q-9-41-30-149t-39-195-19-97q-4-12-5-18t-8-18-14-19-21-12-33-5h-151q-7 0-12-6-5-5-238-275-12-14-33-16t-27 3q-30 12-30 54v787q0 31 21 58t67 26h495q53 0 71-30t6-88z m0 0l-88-441q2 9 19 97t39 195 30 149z" horiz-adv-x="714.3" />

<glyph glyph-name="trello" unicode="&#xf181;" d="M393 100v571q0 8-5 13t-13 5h-268q-8 0-13-5t-5-13v-571q0-8 5-13t13-5h268q8 0 13 5t5 13z m375 214v357q0 8-5 13t-13 5h-268q-8 0-13-5t-5-13v-357q0-7 5-12t13-6h268q8 0 13 6t5 12z m89 429v-786q0-14-10-25t-26-11h-785q-15 0-25 11t-11 25v786q0 14 11 25t25 11h785q15 0 26-11t10-25z" horiz-adv-x="857.1" />

<glyph glyph-name="vkontakte" unicode="&#xf189;" d="M1070 560q13-36-84-164-13-18-36-48-22-28-31-40t-17-27-7-24 8-19 18-24 32-30q2-1 2-2 79-73 107-123 2-3 4-7t4-15-1-19-14-15-33-7l-142-3q-14-2-32 3t-29 13l-11 6q-17 12-39 36t-38 43-34 33-32 8q-1 0-4-2t-10-8-12-16-9-29-4-44q0-8-2-15t-4-10l-2-3q-10-11-30-12h-64q-40-3-81 9t-74 29-57 37-40 32l-14 14q-5 5-15 17t-40 50-59 85-68 117-73 152q-4 9-4 15t2 9l2 3q9 11 32 11l153 1q7-1 13-3t9-5l3-2q9-6 13-18 11-28 26-57t23-46l9-16q16-34 31-58t27-38 23-22 19-8 15 3q1 1 3 3t7 12 7 26 5 46 0 69q-1 23-5 41t-7 26l-4 6q-14 19-47 24-8 2 3 14 8 10 21 17 29 14 133 13 46-1 75-7 12-3 19-8t12-13 5-18 2-25 0-31-2-40 0-46q0-6-1-23t0-27 2-22 6-22 13-14q4-1 9-2t15 6 21 19 29 38 38 60q33 58 60 125 2 6 5 10t6 6l3 2 2 1t8 2 11 0l160 1q22 3 36-1t17-10z" horiz-adv-x="1071.4" />

<glyph glyph-name="dot-circled" unicode="&#xf192;" d="M571 350q0-59-41-101t-101-42-101 42-42 101 42 101 101 42 101-42 41-101z m-142 304q-83 0-153-41t-110-111-41-152 41-152 110-111 153-41 152 41 110 111 41 152-41 152-110 111-152 41z m428-304q0-117-57-215t-156-156-215-58-216 58-155 156-58 215 58 215 155 156 216 58 215-58 156-156 57-215z" horiz-adv-x="857.1" />

<glyph glyph-name="slack" unicode="&#xf198;" d="M848 417q34 0 57-23t24-56q0-54-52-73l-96-33 31-93q4-12 4-26 0-33-24-57t-56-24q-26 0-48 15t-29 40l-31 92-173-59 31-91q4-14 4-27 0-33-23-57t-57-24q-27 0-48 15t-29 41l-31 91-85-30q-17-5-28-5-34 0-57 22t-23 57q0 26 16 47t40 30l87 29-59 175-87-30q-14-5-27-5-33 0-56 23t-23 56q0 26 15 48t40 29l88 30-30 88q-4 14-4 27 0 33 23 57t57 24q26 0 48-16t29-40l30-89 173 59-30 89q-4 13-4 26 0 33 23 57t57 24q26 0 48-15t30-40l29-90 91 31q11 3 24 3 33 0 57-22t24-55q0-25-17-45t-41-29l-88-30 59-177 91 32q13 4 26 4z m-443-146l173 58-59 176-173-60z" horiz-adv-x="928.6" />

<glyph glyph-name="openid" unicode="&#xf19b;" d="M606 850v-857l-152-72q-127 12-231 57t-163 117-60 152q0 78 56 147t154 115 218 60v-96q-121-21-199-84t-78-142q0-85 86-149t217-81v759z m373-325l21-217-293 63 82 47q-66 39-156 55v96q154-19 268-88z" horiz-adv-x="1000" />

<glyph glyph-name="google" unicode="&#xf1a0;" d="M429 411h404q7-37 7-71 0-121-51-216t-145-149-215-54q-88 0-167 34t-137 91-91 137-34 167 34 167 91 137 137 91 167 34q167 0 287-113l-117-112q-68 67-170 67-72 0-133-37t-97-98-36-136 36-136 97-98 133-37q48 0 89 14t67 33 46 46 28 49 13 43h-243v147z" horiz-adv-x="857.1" />

<glyph glyph-name="reddit" unicode="&#xf1a1;" d="M611 199q9-9 0-17-34-35-111-35t-111 35q-9 8 0 17 3 3 8 3t9-3q27-28 94-28 67 0 94 28 4 3 9 3t8-3z m-171 101q0-21-15-35t-35-15-35 15-15 35q0 21 15 36t35 14 35-15 15-35z m220 0q0-21-15-35t-35-15-35 15-15 35 15 35 35 15 35-14 15-36z m140 67q0 27-19 47t-48 19-48-20q-72 50-173 54l35 158 112-26q0-20 14-35t35-14 36 15 14 35-14 35-36 15q-30 0-44-28l-124 28q-10 3-14-9l-38-174q-101-4-173-54-19 20-48 20-28 0-48-19t-19-47q0-20 10-36t28-24q-4-16-4-32 0-79 79-135t188-57q110 0 188 57t78 135q0 18-4 32 17 8 27 24t10 36z m200-17q0-102-40-194t-106-160-160-106-194-40-194 40-160 106-106 160-40 194 40 194 106 160 160 106 194 40 194-40 160-106 106-160 40-194z" horiz-adv-x="1000" />

<glyph glyph-name="stumbleupon" unicode="&#xf1a4;" d="M593 453v66q0 23-17 40t-40 16-40-16-17-40v-342q0-98-70-167t-170-69q-99 0-169 70t-70 169v149h183v-146q0-24 17-41t40-16 40 16 17 41v346q0 95 71 163t168 67q98 0 168-68t71-164v-76l-109-32z m295-124h183v-149q0-99-70-169t-169-70q-99 0-169 69t-70 168v150l73-34 109 32v-151q0-23 16-40t41-16 40 16 16 40v154z" horiz-adv-x="1071.4" />

<glyph glyph-name="digg" unicode="&#xf1a6;" d="M183 693h114v-549h-297v389h183v160z m0-457v206h-69v-206h69z m160 297v-389h114v389h-114z m0 160v-114h114v114h-114z m160-160h297v-526h-297v91h183v46h-183v389z m183-297v206h-69v-206h69z m160 297h297v-526h-297v91h183v46h-183v389z m183-297v206h-69v-206h69z" horiz-adv-x="1142.9" />

<glyph glyph-name="behance" unicode="&#xf1b4;" d="M1031 661h-285v-69h285v69z m-140-238q-51 0-82-29t-34-80h227q-10 109-111 109z m9-326q35 0 68 18t42 48h123q-55-171-238-171-119 0-190 73t-70 194q0 116 72 193t188 77q77 0 134-38t86-100 28-139q0-9-1-26h-367q0-62 32-96t93-33z m-745 28h165q114 0 114 93 0 100-111 100h-168v-193z m0 299h156q44 0 69 21t26 63q0 80-106 80h-145v-164z m-155 284h332q48 0 86-8t71-26 50-54 17-86q0-101-96-147 64-17 96-64t33-114q0-41-14-76t-37-58-55-39-67-24-75-7h-341v703z" horiz-adv-x="1142.9" />

<glyph glyph-name="steam-squared" unicode="&#xf1b7;" d="M693 489q0 45-32 76t-76 32-76-32-32-76q0-45 32-76t76-32 76 32 32 76z m-340-328q0-46-33-79t-78-32q-31 0-57 17t-40 43q29-12 54-23 34-13 67 1t48 48q13 34-1 67t-48 47l-46 19q12 2 23 2 46 0 78-32t33-78z m504 457v-536q0-66-47-113t-114-48h-535q-67 0-114 48t-47 113v86l96-39q11-51 52-85t94-33q58 0 101 39t49 96l192 141q84 0 143 59t59 142q0 84-59 142t-143 59q-82 0-141-58t-60-141l-125-180q-5 1-16 1-42 0-76-21l-166 67v261q0 66 47 113t114 48h535q67 0 114-48t47-113z m-138-130q0-56-39-95t-96-40-95 40-39 95 39 95 95 40q57 0 96-39t39-96z" horiz-adv-x="857.1" />

<glyph glyph-name="spotify" unicode="&#xf1bc;" d="M629 175q0 18-17 28-107 64-249 64-74 0-160-19-24-5-24-29 0-11 8-19t20-8q2 0 20 5 74 15 136 15 126 0 221-58 11-6 19-6 10 0 18 8t8 19z m54 120q0 22-20 34-132 79-306 79-85 0-169-24-27-7-27-36 0-14 10-23t24-10q4 0 20 4 69 19 141 19 155 0 272-69 13-8 21-8 14 0 24 10t10 24z m60 138q0 26-23 39-70 41-163 62t-191 21q-114 0-204-26-12-4-21-15t-9-27q0-17 12-29t28-11q7 0 23 4 74 21 171 21 89 0 173-19t141-53q12-7 23-7 16 0 28 11t12 29z m114-83q0-117-57-215t-156-156-215-58-216 58-155 156-58 215 58 215 155 156 216 58 215-58 156-156 57-215z" horiz-adv-x="857.1" />

<glyph glyph-name="deviantart" unicode="&#xf1bd;" d="M571 681l-169-325 14-17h155v-232h-282l-25-16-79-153-17-17h-168v170l169 325-13 17h-156v231h283l25 17 79 152 17 17h167v-169z" horiz-adv-x="571.4" />

<glyph glyph-name="vine" unicode="&#xf1ca;" d="M835 389v-111q-56-13-110-13-36-76-92-151t-102-120-71-60q-45-25-91 2-15 9-33 24t-48 47-57 72-60 102-59 136-51 176-39 218h158q14-122 39-223t58-177 68-131 78-109q94 94 160 227-79 40-124 122t-45 186q0 107 58 176t158 68q99 0 152-59t53-166q0-89-32-159-4-1-11-2t-25-1-36 3-34 14-28 29q17 58 17 103 0 48-16 73t-44 26q-30 0-48-28t-18-78q0-104 59-164t149-60q35 0 67 8z" horiz-adv-x="857.1" />

<glyph glyph-name="codeopen" unicode="&#xf1cb;" d="M121 198l336-225v201l-186 124z m-35 80l108 72-108 72v-144z m457-305l337 225-151 100-186-124v-201z m-43 275l152 102-152 102-152-102z m-229 154l186 124v201l-336-225z m535-52l108-72v144z m-77 52l151 100-337 225v-201z m271 100v-304q0-23-19-36l-457-305q-12-7-24-7t-24 7l-457 305q-19 13-19 36v304q0 23 19 36l457 305q12 7 24 7t24-7l457-305q19-13 19-36z" horiz-adv-x="1000" />

<glyph glyph-name="circle-thin" unicode="&#xf1db;" d="M429 707q-73 0-139-28t-114-76-76-114-29-139 29-139 76-113 114-77 139-28 138 28 114 77 76 113 29 139-29 139-76 114-114 76-138 28z m428-357q0-117-57-215t-156-156-215-58-216 58-155 156-58 215 58 215 155 156 216 58 215-58 156-156 57-215z" horiz-adv-x="857.1" />

<glyph glyph-name="twitch" unicode="&#xf1e8;" d="M500 608v-242h-81v242h81z m222 0v-242h-81v242h81z m0-424l141 141v444h-666v-585h182v-121l121 121h222z m222 666v-565l-242-242h-182l-121-122h-121v122h-222v646l61 161h827z" horiz-adv-x="1000" />

<glyph glyph-name="cc-visa" unicode="&#xf1f0;" d="M1102 298h-77q8 20 37 99l2 6q2 5 5 14t5 15l7-31z m-806 36l-32 164q-6 31-42 31h-149l-2-8q174-44 225-187z m100 195l-90-245-10 50q-14 39-47 72t-73 50l75-285h98l145 358h-98z m78-359h92l58 359h-92z m428 350q-38 15-83 15-68 0-112-33t-44-86q-1-56 81-97 27-12 37-23t11-21q0-17-17-26t-38-9q-48 0-87 19l-13 6-13-81q42-19 104-19 72 0 116 33t45 90q0 59-78 97-27 14-40 23t-12 21q0 13 14 22t39 9q39 1 69-13l9-5z m238 9h-72q-36 0-48-31l-138-328h97l20 54h118q3-12 11-54h86z m146 178v-714q0-29-21-50t-51-22h-1143q-29 0-50 22t-21 50v714q0 29 21 50t50 22h1143q29 0 51-22t21-50z" horiz-adv-x="1285.7" />

<glyph glyph-name="cc-mastercard" unicode="&#xf1f1;" d="M624 660q-71 47-156 47-58 0-111-22t-90-61-61-90-22-110q0-58 22-111t61-90 90-61 111-22q85 0 156 47-73 60-99 148t0 177 99 148z m19-14q-70-55-96-139t0-168 96-139q71 56 96 139t0 168-96 139z m18 14q73-60 99-148t1-177-100-148q72-47 157-47 58 0 111 22t90 61 61 90 22 111q0 57-22 110t-61 90-91 61-110 22q-85 0-157-47z m414-403h4v2h-10v-2h4v-10h2v10z m16-10h2v12h-3l-3-8-3 8h-3v-12h2v9l3-8h2l3 8v-9z m-4-245v-1h-3v1h3v0z m0-5h1l-2 3h1l1 0q0 1 0 2t0 2l-1 0h-5v-7h2v3h0z m-705 38q0 10 6 17t17 7q10 0 16-7t7-17q0-11-7-18t-16-6q-10 0-17 6t-6 18z m264 24q17 0 20-18h-39q3 18 19 18z m199-24q0 10 6 17t16 7 17-7 6-17q0-11-6-18t-17-6q-10 0-16 6t-6 18z m152 0q0 10 6 17t17 7 16-7 6-17q0-11-6-18t-16-6-17 7-6 17z m88-41q-1 0-2 1-1 0-2 1t-1 2q-1 1-1 2 0 2 1 2 0 2 1 3l1 0q1 0 1 1 1 0 2 0 2 0 2 0l2-1 1-3v0q1-1 1-2l-1 0v-2t0-1l-1-1q-1-1-2-1 0-1-2-1z m-751 3h17v47q0 14-8 22t-22 8q-18 0-26-13-8 13-25 13-14 0-22-11v9h-17v-75h17v42q0 20 18 20 17 0 17-20v-42h16v42q0 20 19 20 16 0 16-20v-42z m93 0h16v75h-16v-9q-10 11-24 11-16 0-27-11t-10-28 10-29 27-11q16 0 24 11v-9z m99 23q0 19-26 22l-8 1q-13 2-13 8 0 8 14 8 13 0 24-6l7 14q-12 7-31 7-14 0-23-6t-8-18q0-19 26-22l8-1q13-2 13-8 0-9-17-9-14 0-25 7l-8-12q14-10 33-10 16 0 25 7t9 18z m73-19l-5 14q-7-4-14-4-11 0-11 12v34h27v15h-27v23h-16v-23h-16v-15h16v-34q0-28 26-28 11 0 20 6z m48 73q-16 0-27-11t-11-28q0-18 11-29t28-11q18 0 31 11l-8 12q-10-8-22-8-19 0-23 18h57v7q0 18-11 28t-25 11z m89 0q-13 0-20-11v9h-17v-75h17v42q0 20 16 20 6 0 10-2l5 15q-5 2-11 2z m16-39q0-18 11-29t29-11q17 0 27 9l-8 13q-10-7-19-6-10 0-17 6t-6 18 6 17 17 7q11 0 19-7l8 13q-11 9-27 9-18 0-29-11t-11-28z m137-38h17v75h-17v-9q-8 11-23 11-17 0-28-11t-10-28 10-29 28-11q15 0 23 11v-9z m74 77q-13 0-19-11v9h-16v-75h16v42q0 20 16 20 5 0 10-2l5 15q-5 2-12 2z m78-77h17v106h-17v-40q-8 11-24 11t-26-11-11-28 11-28 26-12q17 0 24 11v-9z m44 11l-1-1h-2q-1 0-2-1-2-1-2-2 0-2 0-4 0-2 0-3 0-1 2-2 1-1 2-2t3 0q2 0 3 0 0 1 1 1l1 1q1 1 2 2 1 1 1 3 0 2-1 4 0 0-2 2 0 0-1 1l-1 0q0 0-1 1t-2 0z m201 699v-714q0-29-21-50t-51-22h-1143q-29 0-50 22t-21 50v714q0 29 21 50t50 22h1143q29 0 51-22t21-50z" horiz-adv-x="1285.7" />

</font>
</defs>
</svg>
